Вы используете незарегистрированную версию компонента "Вкладки"!

Поиск

2002 Patrick Saussois & Alma Sinti - Live at The New Morning [HDTV 1080p]

2002 Patrick Saussois & Alma Sinti - Live at The New Morning [HDTV 1080p]
Место проведения:
The New Morning, Paris, France
Время звучания:
00:53:48
Главы (разбивка по трекам):
нет
Качество:
HDTV
Контейнер:
MP4
Состав:
  • Jean-Claude Benetteau (contrebasse)
  • Sebastien Regreny (guitare)
  • Jean-Yves Dubanton (guirare)
  • Jean-Claude Laudat (accordeon)
  • Patrick Saussois (guitare)
  • Stan Laferriere (piano)
  • Koen De Cauter (guitare)
  • Beb Papazian (percussions & sax-soprano)
  • Dajo de Cauter (contrebasse)
Треклист:

01. Le Gars De Rochechouart
02. Jojo Swing
03. Chicken Head
04. Oscar
05. Coin De Rue
06. Mes Jeunes Annees
07. La Bikina
08. The Song Is You
09. Ton Bolero
10. Django' Tiger
11. Extralucide
12. Besame Mucho / Les Yeux Noirs

Видео:
1920x1080 (16:9), 25.00 fps, AVC, 9136 Кбит, 0.175 bits/pixel
Аудио#1:
48.0 KHz, AAC-LC, 2 ch, stereo, 128-384 Kbps VBR
Описание:

Patrick Saussois (Патрик Соссуа) — французский гитарист. Музыкант редкого эклектизма, он исполняет джазовую музыку различных эпох. Ароматы американских хитов 30-х и 60-х годов, дансингов, бразильской музыки, французского шансона, свинга, цыганских вальсов соединяются, чтобы стать больше чем только джазовая или народная музыка. "Моя культура парижская. Я родился в Париже, и я жил там всегда. Моя приверженность к этому городу очень сильна, и я полагаю, что это чувствуется и в моей манере говорить, и в моей манере игры. Когда я думаю о Париже, моем городе, я знаю, что душа Django там — в его разуме, в его популярной культуре, которой дышат парижские стены, в фотографиях Робера Дуано (Robert Doisneau) и стихах Жака Превера (Jacques Prevert). Во всем я это слышу". "Для меня существуют две категории гитаристов: те, кого я люблю за их игру, как Rene Thomas или Elek Bacsik, которого я обожаю, и те, кого я люблю за манеру исполнения, экспрессивность: Django, Wes Montgomery и главным образом мой кумир, Grant Green".

Отчёт DVDInfo/MediaInfo/BDInfo
Полное имя : G:\DVD\Patrick Saussois & Alma Sinti - LaTNM 2002\Patrick Saussois & Alma Sinti - Live at The New Morning.mp4
Формат : MPEG-4
Профиль формата : Base Media / Version 2
Идентификатор кодека : mp42
Размер файла : 3,58 Гбайт
Продолжительность : 53 м.
Общий поток : 9523 Кбит/сек
Дата кодирования : UTC 2013-12-12 12:02:29
Дата пометки : UTC 2013-12-12 12:02:29
Видео
Идентификатор : 2
Формат : AVC
Формат/Информация : Advanced Video Codec
Профиль формата : Main@L4.0
Параметр CABAC формата : Да
Параметр ReFrames формата : 2 кадра
Идентификатор кодека : avc1
Идентификатор кодека/Информация : Advanced Video Coding
Продолжительность : 53 м.
Вид битрейта : Переменный
Битрейт : 9136 Кбит/сек
Максимальный битрейт : 9001 Кбит/сек
Ширина : 1920 пикселей
Высота : 1088 пикселей
Высота оригинала : 1080 пикселей
Соотношение сторон : 16:9
Соотношение сторон в оригинале : 16:9
Режим частоты кадров : Постоянный
Частота кадров : 25,000 кадров/сек
Частота кадров в оригинале : 12,500 кадров/сек
Цветовое пространство : YUV
Субдискретизация насыщенности : 4:2:0
Битовая глубина : 8 бит
Тип развёртки : Прогрессивная
Бит/(Пиксели*Кадры) : 0.175
Размер потока : 3,43 Гбайт (96%)
Язык : English
Дата кодирования : UTC 2013-12-12 12:02:29
Дата пометки : UTC 2013-12-12 12:02:29
Аудио
Идентификатор : 1
Формат : AAC
Формат/Информация : Advanced Audio Codec
Профиль формата : LC
Идентификатор кодека : 40
Продолжительность : 53 м.
Вид битрейта : Постоянный
Битрейт : 384 Кбит/сек
Номинальный битрейт : 128 Кбит/сек
Каналы : 2 канала
Расположение каналов : Front: L R
Частота : 48,0 КГц
Метод сжатия : С потерями
Размер потока : 147 Мбайт (4%)
Язык : English
Дата кодирования : UTC 2013-12-12 12:02:29
Дата пометки : UTC 2013-12-12 12:02:29
Any questions - support@pro-jazz.com.
Есть вопросы - support@pro-jazz.com
42
Нет комментариев. Ваш будет первым!