Поиск

1964 Ella Fitzgerald - Live at Festival de Jazz d'Antibes [SD]

1964 Ella Fitzgerald - Live at Festival de Jazz d'Antibes [SD]
Дата проведения концерта (записи):
28 сентября - 29 сентября 1964
Место проведения:
Pinede Gould Amphitheatre, Juan-Les-Pins, France
Дата издания диска:
1964
Время звучания:
00:30:50
Качество:
SATRip
Контейнер:
TS
Состав:
Треклист:

01. Them There Eyes
02. The Lady Is A Tramp
03. Summertime
04. Cutie Pants
05. I'm Puttin' All My Eggs In One Basket
06. St. Louis Blues
07. Perdido

Видео:
MPEG-TS, 704*576 (4:3), 1242kbps, 25fps
Аудио#1:
MPEG2, 256kbps, 48kHz, 2ch
Источник:
собственная запись
Отчёт DVDInfo/MediaInfo/BDInfo
Общее
Идентификатор : 1 (0x1)
Полное имя : \\Ella Fitzgerald\1964 Ella Fitzgerald - Live at Festival de Jazz d'Antibes\1964 Ella Fitzgerald - Live at Festival de Jazz d'Antibes.ts
Формат : MPEG-TS
Размер файла : 348 Мбайт
Продолжительность : 30 м. 50 с.
Режим общего битрейта : Переменный
Общий поток : 1578 Кбит/сек

Видео
Идентификатор : 226 (0xE2)
Идентификатор меню : 19126 (0x4AB6)
Формат : AVC
Формат/Информация : Advanced Video Codec
Профиль формата : High@L3
Настройки формата : CABAC / 4 Ref Frames
Параметр CABAC формата : Да
Параметр RefFrames формата : 4 кадра
Идентификатор кодека : 27
Продолжительность : 30 м. 50 с.
Битрейт : 1242 Кбит/сек
Ширина : 704 пикселя
Высота : 576 пикселей
Соотношение сторон : 16:9
Частота кадров : 25,000 кадров/сек
Стандарт вещания : Component
Цветовое пространство : YUV
Субдискретизация насыщенности : 4:2:0
Битовая глубина : 8 бит
Тип развёртки : Чересстрочная
Метод сохранения типа развёртки : Раздельные поля
Порядок развёртки : Верхнее поле первое
Бит/(Пиксели*Кадры) : 0.122
Размер потока : 274 Мбайт (79%)
Цветовой диапазон : Limited
Основные цвета : BT.601 PAL
Характеристики трансфера : BT.470 System B/G
Коэффициенты матрицы : BT.470 System B/G

Аудио
Идентификатор : 326 (0x146)
Идентификатор меню : 19126 (0x4AB6)
Формат : MPEG Audio
Версия формата : Version 1
Профиль формата : Layer 2
Идентификатор кодека : 3
Продолжительность : 30 м. 50 с.
Вид битрейта : Постоянный
Битрейт : 256 Кбит/сек
Каналы : 2 канала
Частота : 48,0 КГц
Частота кадров : 41,667 кадра/сек (1152 SPF)
Метод сжатия : С потерями
Размер потока : 56,5 Мбайт (16%)
Язык : French
По всем вопросам пишите личное сообщение пользователю M0p94ok.
651
Комментарий удален