Поиск

1964 Chet Baker Quintette - Jazz Legends: Bye, Bye, Blackbird [SD]

1964 Chet Baker Quintette - Jazz Legends: Bye, Bye, Blackbird [SD]
Дата проведения концерта (записи):
1964
Время звучания:
00:31:42
Качество:
SATRip
Контейнер:
TS
Состав:
  • Chet Baker - trumpet
  • Rene Urtreger - piano
  • Luigi Trussardi - bass
  • Franco Manzecchi - drums
  • Jacques Pelzer - alto sax & flute
Треклист:

01. Bye Bye Blackbird
02. Isn't It Romantic
03. Airegin
04. Time After Time
05. So What

Видео:
MPEG-TS, 704*576 (16:9), 936kbps, 25fps
Аудио#1:
MPEG2, 256kbps, 48kHz, 2ch
Источник:
собственная запись
Отчёт DVDInfo/MediaInfo/BDInfo
Общее
Идентификатор : 1 (0x1)
Полное имя : \\Chet Baker\1964 Chet Baker Quintette - Jazz Legends.ts
Формат : MPEG-TS
Размер файла : 285 Мбайт
Продолжительность : 31 м. 42 с.
Режим общего битрейта : Переменный
Общий поток : 1256 Кбит/сек

Видео
Идентификатор : 226 (0xE2)
Идентификатор меню : 1 (0x1)
Формат : AVC
Формат/Информация : Advanced Video Codec
Профиль формата : High@L3
Настройки формата : CABAC / 4 Ref Frames
Параметр CABAC формата : Да
Параметр RefFrames формата : 4 кадра
Идентификатор кодека : 27
Продолжительность : 31 м. 42 с.
Битрейт : 936 Кбит/сек
Ширина : 704 пикселя
Высота : 576 пикселей
Соотношение сторон : 16:9
Частота кадров : 25,000 кадров/сек
Стандарт вещания : Component
Цветовое пространство : YUV
Субдискретизация насыщенности : 4:2:0
Битовая глубина : 8 бит
Тип развёртки : Чересстрочная
Метод сохранения типа развёртки : Раздельные поля
Порядок развёртки : Верхнее поле первое
Бит/(Пиксели*Кадры) : 0.092
Размер потока : 212 Мбайт (74%)
Цветовой диапазон : Limited
Основные цвета : BT.601 PAL
Характеристики трансфера : BT.470 System B/G
Коэффициенты матрицы : BT.470 System B/G

Аудио
Идентификатор : 326 (0x146)
Идентификатор меню : 1 (0x1)
Формат : MPEG Audio
Версия формата : Version 1
Профиль формата : Layer 2
Идентификатор кодека : 3
Продолжительность : 31 м. 42 с.
Вид битрейта : Постоянный
Битрейт : 256 Кбит/сек
Каналы : 2 канала
Частота : 48,0 КГц
Частота кадров : 41,667 кадра/сек (1152 SPF)
Метод сжатия : С потерями
Размер потока : 58,1 Мбайт (20%)
Язык : English
По всем вопросам пишите личное сообщение пользователю M0p94ok.
667
Нет комментариев. Ваш будет первым!