Вы используете незарегистрированную версию компонента "Вкладки"!

Поиск

1961 Modern Jazz Quartet - Palais des Beaux-Arts, Brussels (part 2) [SD]

1961 Modern Jazz Quartet - Palais des Beaux-Arts, Brussels (part 2) [SD]
Место проведения:
Palais des Beaux-Arts, Brussels
Время звучания:
00:27:57
Главы (разбивка по трекам):
нет
Качество:
IPTVRip
Контейнер:
MP4
Состав:
  • John Lewis - piano
  • Percy Heath - bass
  • Milt Jackson - vibraphone
  • Connie Kay - drums
Видео:
AVC, 704*576i (16:9), 1032kbps, 25fps
Аудио#1:
AAC LC, 256kbps, 48kHz, 2ch
Источник:
собственная запись
Отчёт DVDInfo/MediaInfo/BDInfo
Общее
Полное имя :\1961 Modern Jazz Quartet - Palais des Beaux-Arts, Brussels (part 2) [SD].mp4
Формат : MPEG-4
Профиль формата : Base Media
Идентификатор кодека : isom (isom/iso2/avc1/mp41)
Размер файла : 260 Мбайт
Продолжительность : 27 м. 57 с.
Режим общего битрейта : Переменный
Общий поток : 1300 Кбит/сек
Программа кодирования : VideoReDo (Lavf57.71.100)

Видео
Идентификатор : 1
Формат : AVC
Формат/Информация : Advanced Video Codec
Профиль формата : High@L3
Настройки формата : CABAC / 4 Ref Frames
Параметр CABAC формата : Да
Параметр RefFrames формата : 4 кадра
Идентификатор кодека : avc1
Идентификатор кодека/Информация : Advanced Video Coding
Продолжительность : 27 м. 57 с.
Битрейт : 1032 Кбит/сек
Ширина : 704 пикселя
Высота : 576 пикселей
Соотношение сторон : 16:9
Режим частоты кадров : Постоянный
Частота кадров : 50,000 кадров/сек
Частота кадров в оригинале : 25,000 кадров/сек
Стандарт вещания : Component
Цветовое пространство : YUV
Субдискретизация насыщенности : 4:2:0
Битовая глубина : 8 бит
Тип развёртки : Чересстрочная
Метод сохранения типа развёртки : Раздельные поля
Порядок развёртки : Верхнее поле первое
Бит/(Пиксели*Кадры) : 0.051
Размер потока : 206 Мбайт (79%)
Цветовой диапазон : Limited
Основные цвета : BT.601 PAL
Характеристики трансфера : BT.470 System B/G
Коэффициенты матрицы : BT.470 System B/G
Codec configuration box : avcC

Аудио
Идентификатор : 2
Формат : AAC LC
Формат/Информация : Advanced Audio Codec Low Complexity
Идентификатор кодека : mp4a-40-2
Продолжительность : 27 м. 57 с.
Duration_LastFrame : -21 мс.
Вид битрейта : Переменный
Битрейт : 253 Кбит/сек
Максимальный битрейт : 256 Кбит/сек
Каналы : 2 канала
ChannelLayout : L R
Частота : 48,0 КГц
Частота кадров : 46,875 кадров/сек (1024 SPF)
Метод сжатия : С потерями
Размер потока : 50,7 Мбайт (19%)
Язык : French
Default : Да
AlternateGroup/String : 1
Any questions - support@pro-jazz.com. Есть вопросы - support@pro-jazz.com
457
Нет комментариев. Ваш будет первым!