Поиск

1944 VA - Jammin' the Blues - The Jazz Greats [HDTV 1080p]

1944 VA - Jammin' the Blues - The Jazz Greats [HDTV 1080p]
Стиль:
Время звучания:
00:29:52
Главы (разбивка по трекам):
нет
Качество:
WEB-DL
Контейнер:
MP4
Состав:
Видео:
AVC (h.264) / 1920x1080 / progressive / 16x9 / 1 995 kbps / 25 fps
Аудио#1:
AAC-LC / 256 kbps / 48,0 kHz / 2.0 stereo
Описание:

Получасовое попурри из классического джаза! В этом видео с различных сессий, посвященных эпохе джаза, участвуют такие иконы, как Лестер Янг, Чарли Паркер и Элла Фицджеральд, которые были восходящими звездами в 40-х и 50-х годах. Лучшая часть этой черно-белой архивной коллекции — "Jammin' the Blues", фильм 1944 года, снятый Гьоном Дили и джазовым промоутером Норманом Гранцем. Это 10-минутное воссоздание ночного джаз-клуба, которое компания Warner Bros. выпустила для показа в кинотеатрах в качестве "короткометражки" перед выходом полнометражного фильма. Гранц хотел рассказать о зарождающемся джазовом движении, которое зарождалось в местах, не имеющих отношения к развлечениям. Именно здесь появляются звезды короткометражки: тенор-саксофонист Лестер Янг, трубач Генри "Свитс" Эдисон, гитарист Барни Кессел и многие другие.

Голос диктора за кадром представляет короткометражку: "Это джем-сейшн" и добавляет: "Его можно назвать полуночной симфонией". Изюминка: замечательная вокалистка Мари Брайант, поющая душу в ставшей сегодня стандартной "On the Sunny Side of the Street" (сочиненной Свитсом). В другой мелодии Брайант и Арчи Сэвидж расстилают ковер, танцуя под свинг в силуэте. В 1995 году фильм "Jammin' the Blues" был удостоен права на сохранение в Национальном реестре фильмов США в Библиотеке Конгресса. Далее на видео: телевизионный ролик о том, как джазовый писатель Леонард Фезер вручает джазовые награды журнала DownBeat за 1951 год альт-саксофонисту Чарли Паркеру и трубачу Диззи Гиллеспи, которые затем исполняют убойную версию "Hothouse". Другие сегменты — это не столько джемы, сколько аранжировки для телевидения 50-х годов, когда джаз был в тренде. Мелодии исполняются полными составами: Стэн Гетц на тенор-саксофоне, Бадди Рич на барабанах, Оскар Питерсон на фортепиано, а в одной мелодии Элла Фицджеральд исполняет скэтт. На экране информация об именах всех звездных исполнителей практически отсутствует, что может стать вызовом для зрителей, желающих глубже разобраться в этом вопросе.

Jammin' the Blues — американский короткометражный фильм 1944 года, снятый Гьоном Мили и Норманом Гранцем, в котором несколько выдающихся джазовых музыкантов воссоздают атмосферу джем-сейшнов в ночных клубах и заведениях после окончания рабочего дня. В фильме снимались Лестер Янг, Ред Каллендер, Гарри Эдисон, Марлоу Моррис, Сид Кэтлетт, Барни Кессел, Джо Джонс, Джон Симмонс, Иллинойс Жаке, Мари Брайант и Арчи Сэвидж.

Гьон Мили и Норман Гранц, который был указан как технический директор, сняли фильм за четыре дня при поддержке главы отдела короткометражных фильмов Warner Bros. Гордона Холлингсхеда. Барни Кессел был единственным белым музыкантом в фильме. Его руки были испачканы ягодным соком, и он сидел в тени, чтобы оттенить свою кожу.

Продюсер Гордон Холлингсхед был номинирован на премию "Оскар" в категории "Лучший короткометражный фильм, один ролик".

В 1995 году "Jammin' the Blues" был отобран Библиотекой Конгресса США для сохранения в Национальном реестре фильмов США как "культурно, исторически или эстетически значимый".

Короткометражка была выпущена на обоих DVD с фильмами "Блюз в ночи" (1941) и "Проезд в Марсель" (1944), в последнем из которых главную роль сыграл Хамфри Богарт.

Дополнительная информация:
Отчёт DVDInfo/MediaInfo/BDInfo
Общее
Полное имя : \\1944\1944 VA - Jammin' the Blues - The Jazz Greats [HDTV 1080p]\1944 VA - Jammin' the Blues - The Jazz Greats [HDTV 1080p].mp4
Формат : MPEG-4
Профиль формата : Base Media
Идентификатор кодека : isom (isom/iso2/avc1/mp41)
Размер файла : 483 Мбайт
Продолжительность : 29 м. 53 с.
Общий поток : 2 257 Кбит/сек
Частота кадров : 25,000 кадров/сек
HDVideo : Yes

Видео
Идентификатор : 1
Формат : AVC
Формат/Информация : Advanced Video Codec
Профиль формата : High@L4.1
Настройки формата : CABAC / 3 Ref Frames
Параметр CABAC формата : Да
Параметр RefFrames формата : 3 кадра
Идентификатор кодека : avc1
Идентификатор кодека/Информация : Advanced Video Coding
Продолжительность : 29 м. 53 с.
Битрейт : 1 995 Кбит/сек
Ширина : 1 920 пикселей
Высота : 1 080 пикселей
Соотношение сторон : 16:9
Active width : 1 374 пикселя
Active height : 1 044 пикселя
Active display aspect ratio : 4:3
Режим частоты кадров : Постоянный
Частота кадров : 25,000 кадров/сек
Цветовое пространство : YUV
Субдискретизация насыщенности : 4:2:0
Битовая глубина : 8 бит
Тип развёртки : Прогрессивная
Бит/(Пиксели*Кадры) : 0.038
Размер потока : 427 Мбайт (88%)
Библиотека кодирования : x264 core 155 r2917 0a84d98
Настройки программы : cabac=1 / ref=4 / deblock=1:0:0 / analyse=0x3:0x113 / me=hex / subme=7 / psy=1 / psy_rd=1.00:0.00 / mixed_ref=1 / me_range=16 / chroma_me=1 / trellis=1 / 8x8dct=1 / cqm=0 / deadzone=21,11 / fast_pskip=1 / chroma_qp_offset=-2 / threads=6 / lookahead_threads=1 / sliced_threads=0 / nr=0 / decimate=1 / interlaced=0 / bluray_compat=0 / constrained_intra=0 / bframes=3 / b_pyramid=1 / b_adapt=1 / b_bias=0 / direct=1 / weightb=1 / open_gop=0 / weightp=2 / keyint=50 / keyint_min=25 / scenecut=0 / intra_refresh=0 / rc_lookahead=40 / rc=cbr / mbtree=1 / bitrate=2000 / ratetol=1.0 / qcomp=0.60 / qpmin=0 / qpmax=69 / qpstep=4 / vbv_maxrate=2000 / vbv_bufsize=6000 / nal_hrd=none / filler=0 / ip_ratio=1.40 / aq=1:1.00
Codec configuration box : avcC

Аудио
Идентификатор : 2
Формат : AAC LC
Формат/Информация : Advanced Audio Codec Low Complexity
Идентификатор кодека : mp4a-40-2
Продолжительность : 29 м. 53 с.
Вид битрейта : Постоянный
Битрейт : 256 Кбит/сек
Каналы : 2 канала
Channel layout : L R
Частота : 48,0 КГц
Частота кадров : 46,875 кадров/сек (1024 SPF)
Метод сжатия : С потерями
Размер потока : 54,7 Мбайт (11%)
Default : Да
Alternate group : 1
Any questions - support@pro-jazz.com
To become a power user - read FAQ.
96
Нет комментариев. Ваш будет первым!