Вы используете незарегистрированную версию компонента "Вкладки"!

Поиск

(Worldbeat, Avant-Garde, Funk, Experimental) Liu Sola - Blues In The East {Axiom} - 1994, FLAC (tracks+.cue), lossless

(Worldbeat, Avant-Garde, Funk, Experimental) Liu Sola - Blues In The East {Axiom} - 1994, FLAC (tracks+.cue), lossless
Треклист:
Sola
Blues In The East


Жанр: Worldbeat, Avant-Garde, Funk, Experimental
Год выпуска диска: 1994
Производитель диска: USA
Аудио кодек: FLAC
Тип рипа: tracks+.cue
Битрейт аудио: lossless
Продолжительность: 64:17
Liu Sola - lead and backing vocals
Amina Claudine Myers - Hammond B-3 organ, piano and vocals
Wu Man - pipa
Umar Bin Hassan - storyteller
James Blood Ulmer - guitar
Jason Hwang - violin
Henry Threadgill - saxophone
Ralph Samuelson - shakuhachi
Ned Rothenberg - shakuhachi and woodwinds
Fernando Saunders - bass
Jerome Brailey - drums
Yukio Tshuji - Japanese percussion
Aiyb Dieng - African percussion
THE BROKEN ZITHER
1. Introduction (2:01)
2. Boya's Adventures (3:50)
3. Meeting with the Woodcutter Ziqi (6:35)
4. A Discourse on the Zither (7:24)
5. The Appointment with Ziqi (10:52)
6. Boya's Lament (6:54)
7. Breaking the Zither (6:18)
MARRIED TO EXILE
8. Beyond the Great Wall (4:09)
9. The Goose (4:31)
10. Looking Back (3:56)
11. The Nation's Boundaries (3:56)
12. Oh Mother (3:37)
Produced by Bill Laswell.
Axiom, distributed by Island Records, Inc.
1994, Island Records, Inc.
314-524 003-2
 
EAC extraction logfile from 14. December 2008, 18:25
Exact Audio Copy V0.99 prebeta 4 from 23. January 2008
EAC extraction logfile from 14. December 2008, 18:25
Sola / Blues In The East
Used drive : PLEXTOR DVDR PX-760A Adapter: 0 ID: 0
Read mode : Secure
Utilize accurate stream : Yes
Defeat audio cache : Yes
Make use of C2 pointers : No
Read offset correction : 30
Overread into Lead-In and Lead-Out : Yes
Fill up missing offset samples with silence : Yes
Delete leading and trailing silent blocks : No
Null samples used in CRC calculations : Yes
Used interface : Native Win32 interface for Win NT & 2000
Gap handling : Appended to previous track
Used output format : User Defined Encoder
Selected bitrate : 128 kBit/s
Quality : High
Add ID3 tag : No
Command line compressor : C:\Program Files\FLAC\flac.exe
Additional command line options : -8 -V -T "ARTIST=%a" -T "TITLE=%t" -T "ALBUM=%g" -T "DATE=%y" -T "TRACKNUMBER=%n" -T "GENRE=%m" -T "COMMENT=EAC FLAC -8" %s
TOC of the extracted CD
Track | Start | Length | Start sector | End sector
---------------------------------------------------------
1 | 0:00.32 | 2:03.10 | 32 | 9266
2 | 2:03.42 | 3:50.48 | 9267 | 26564
3 | 5:54.15 | 6:34.45 | 26565 | 56159
4 | 12:28.60 | 7:23.15 | 56160 | 89399
5 | 19:52.00 | 10:52.05 | 89400 | 138304
6 | 30:44.05 | 6:54.25 | 138305 | 169379
7 | 37:38.30 | 6:24.15 | 169380 | 198194
8 | 44:02.45 | 4:11.50 | 198195 | 217069
9 | 48:14.20 | 4:33.02 | 217070 | 237546
10 | 52:47.22 | 3:57.70 | 237547 | 255391
11 | 56:45.17 | 3:54.18 | 255392 | 272959
12 | 60:39.35 | 3:38.32 | 272960 | 289341
Track 1
Filename J:\Sola - Blues In The East (1994) [FLAC]\01 - The Broken Zither - Introduction.wav
Pre-gap length 0:00:02.32
Peak level 48.1 %
Track quality 100.0 %
Test CRC 76CA9276
Copy CRC 76CA9276
Accurately ripped (confidence 3) [648EB8D7]
Copy OK
Track 2
Filename J:\Sola - Blues In The East (1994) [FLAC]\02 - Boya's Adventure.wav
Peak level 83.9 %
Track quality 100.0 %
Test CRC 69FDE859
Copy CRC 69FDE859
Accurately ripped (confidence 3) [1250EFA8]
Copy OK
Track 3
Filename J:\Sola - Blues In The East (1994) [FLAC]\03 - Meeting With The Woodcutter Ziqi.wav
Peak level 65.8 %
Track quality 100.0 %
Test CRC A0ED09AE
Copy CRC A0ED09AE
Accurately ripped (confidence 3) [F453C052]
Copy OK
Track 4
Filename J:\Sola - Blues In The East (1994) [FLAC]\04 - A Discourse On The Zither.wav
Peak level 79.6 %
Track quality 100.0 %
Test CRC 9A0B7BCF
Copy CRC 9A0B7BCF
Accurately ripped (confidence 3) [56652BEE]
Copy OK
Track 5
Filename J:\Sola - Blues In The East (1994) [FLAC]\05 - The Appointment With Ziqi.wav
Peak level 34.0 %
Track quality 100.0 %
Test CRC AE37E3B7
Copy CRC AE37E3B7
Accurately ripped (confidence 3) [79F5A5CA]
Copy OK
Track 6
Filename J:\Sola - Blues In The East (1994) [FLAC]\06 - Boya's Lament.wav
Pre-gap length 0:00:00.53
Peak level 79.9 %
Track quality 100.0 %
Test CRC F205057D
Copy CRC F205057D
Accurately ripped (confidence 3) [EA3EEBAB]
Copy OK
Track 7
Filename J:\Sola - Blues In The East (1994) [FLAC]\07 - Breaking The Zither.wav
Peak level 76.2 %
Track quality 99.9 %
Test CRC EAF54C62
Copy CRC EAF54C62
Accurately ripped (confidence 3) [55ECCC3A]
Copy OK
Track 8
Filename J:\Sola - Blues In The East (1994) [FLAC]\08 - Married To Exile - Beyond The Great Wall.wav
Pre-gap length 0:00:05.15
Peak level 80.8 %
Track quality 99.9 %
Test CRC 79B99B63
Copy CRC 79B99B63
Accurately ripped (confidence 3) [12B19454]
Copy OK
Track 9
Filename J:\Sola - Blues In The East (1994) [FLAC]\09 - The Goose.wav
Peak level 81.5 %
Track quality 100.0 %
Test CRC 0BA2321A
Copy CRC 0BA2321A
Accurately ripped (confidence 3) [D368A68A]
Copy OK
Track 10
Filename J:\Sola - Blues In The East (1994) [FLAC]\10 - Looking Back.wav
Peak level 35.1 %
Track quality 100.0 %
Test CRC 3486BBDC
Copy CRC 3486BBDC
Accurately ripped (confidence 3) [2B144632]
Copy OK
Track 11
Filename J:\Sola - Blues In The East (1994) [FLAC]\11 - The Nation's Boundaries.wav
Peak level 87.7 %
Track quality 100.0 %
Test CRC 2A2B554D
Copy CRC 2A2B554D
Accurately ripped (confidence 3) [B30096AB]
Copy OK
Track 12
Filename J:\Sola - Blues In The East (1994) [FLAC]\12 - Oh Mother.wav
Pre-gap length 0:00:00.25
Peak level 78.0 %
Track quality 100.0 %
Test CRC 77A29696
Copy CRC 77A29696
Accurately ripped (confidence 3) [6559197B]
Copy OK
All tracks accurately ripped
No errors occurred
End of status report
Собственный рип с оригинального диска.
В комплекте полный набор сканов PNG/300dpi.
Any questions -> support@pro-jazz.com. По всем вопросам пишите -> support@pro-jazz.com
10:40
181
Нет комментариев. Ваш будет первым!