Поиск

(World Music, Soul, Jazz) Manu Dibango - Soul Makossa 1972 - 1994, FLAC (tracks+.cue), lossless

(World Music, Soul, Jazz) Manu Dibango - Soul Makossa 1972 - 1994, FLAC (tracks+.cue), lossless
Треклист:
Manu Dibango / Soul Makossa 1972
Жанр: World Music, Soul, Jazz
Страна-производитель диска: France
Год издания: 1994
Издатель (лейбл): Musidisc
Номер по каталогу: MUSIDISC331442
Страна: Cameron
Аудиокодек: FLAC (*.flac)
Тип рипа: tracks+.cue
Битрейт аудио: lossless
Продолжительность: 00:36:49
Источник (релизер): Musidisc
Наличие сканов в содержимом раздачи: да
Треклист:
01 - Soul Makossa
02 - Lily
03 - Dangwa 'Three Points'
04 - O Boso
05 - New-Bell 'Hard Pulsation'
06 - Nights In Zeralda
07 - Hibiscus
 
Лог создания рипа
Exact Audio Copy V0.99 prebeta 5 from 4. May 2009
EAC extraction logfile from 24. September 2009, 10:11
Manu Dibango / Soul Makossa
Used drive : TDK CDRW5200B Adapter: 1 ID: 1
Read mode : Secure
Utilize accurate stream : Yes
Defeat audio cache : Yes
Make use of C2 pointers : No
Read offset correction : 6
Overread into Lead-In and Lead-Out : No
Fill up missing offset samples with silence : Yes
Delete leading and trailing silent blocks : No
Null samples used in CRC calculations : Yes
Used interface : Native Win32 interface for Win NT & 2000
Gap handling : Appended to previous track
Used output format : User Defined Encoder
Selected bitrate : 768 kBit/s
Quality : High
Add ID3 tag : No
Command line compressor : C:\Program Files\Exact Audio Copy\FLAC\FLAC.EXE
Additional command line options : -6 -V -T "ARTIST=%a" -T "TITLE=%t" -T "ALBUM=%g" -T "DATE=%y" -T "TRACKNUMBER=%n" -T "GENRE=%m" -T "COMMENT=%e" %s -o %d
TOC of the extracted CD
Track | Start | Length | Start sector | End sector
---------------------------------------------------------
1 | 0:00.32 | 4:31.45 | 32 | 20401
2 | 4:32.02 | 3:04.45 | 20402 | 34246
3 | 7:36.47 | 6:02.50 | 34247 | 61446
4 | 13:39.22 | 5:24.18 | 61447 | 85764
5 | 19:03.40 | 6:50.62 | 85765 | 116576
6 | 25:54.27 | 4:38.25 | 116577 | 137451
7 | 30:32.52 | 6:16.68 | 137452 | 165719
Track 1
Filename C:\EAC\01 - Soul Makossa.wav
Pre-gap length 0:00:02.42
Peak level 86.8 %
Track quality 100.0 %
Test CRC 15C50DE8
Copy CRC 15C50DE8
Accurately ripped (confidence 1) [7D0FE4B1]
Copy OK
Track 2
Filename C:\EAC\02 - Lily.wav
Pre-gap length 0:00:02.80
Peak level 72.3 %
Track quality 99.9 %
Test CRC 615DDA72
Copy CRC 615DDA72
Accurately ripped (confidence 1) [9A170268]
Copy OK
Track 3
Filename C:\EAC\03 - Dangwa 'Three Points'.wav
Pre-gap length 0:00:02.56
Peak level 77.5 %
Track quality 100.0 %
Test CRC 82DFF1D5
Copy CRC 82DFF1D5
Accurately ripped (confidence 1) [1524AFE6]
Copy OK
Track 4
Filename C:\EAC\04 - O Boso.wav
Pre-gap length 0:00:02.96
Peak level 66.9 %
Track quality 100.0 %
Test CRC B0E36520
Copy CRC B0E36520
Accurately ripped (confidence 1) [793667D0]
Copy OK
Track 5
Filename C:\EAC\05 - New-Bell 'Hard Pulsation'.wav
Pre-gap length 0:00:03.38
Peak level 78.1 %
Track quality 100.0 %
Test CRC DA1B592D
Copy CRC DA1B592D
Accurately ripped (confidence 1) [29986133]
Copy OK
Track 6
Filename C:\EAC\06 - Nights In Zeralda.wav
Pre-gap length 0:00:03.00
Peak level 64.1 %
Track quality 100.0 %
Test CRC 54FBBC0E
Copy CRC 54FBBC0E
Accurately ripped (confidence 1) [B4EA2251]
Copy OK
Track 7
Filename C:\EAC\07 - Hibiscus.wav
Pre-gap length 0:00:03.26
Peak level 83.1 %
Track quality 99.9 %
Test CRC 0E5B3C6D
Copy CRC 0E5B3C6D
Cannot be verified as accurate (confidence 1) [E8E93129], AccurateRip returned [63DD49DF]
Copy OK
6 track(s) accurately ripped
1 track(s) could not be verified as accurate
Some tracks could not be verified as accurate
No errors occurred
End of status report
 
Содержание индексной карты (.CUE)
REM DATE 1969
REM DISCID 5708A107
REM COMMENT "ExactAudioCopy v0.99pb5"
PERFORMER "Manu Dibango"
TITLE "Soul Makossa"
FILE "01 - Soul Makossa.wav" WAVE
TRACK 01 AUDIO
TITLE "Soul Makossa"
PERFORMER "Manu Dibango"
PREGAP 00:00:32
INDEX 01 00:00:00
TRACK 02 AUDIO
TITLE "Lily"
PERFORMER "Manu Dibango"
INDEX 00 04:28:60
FILE "02 - Lily.wav" WAVE
INDEX 01 00:00:00
TRACK 03 AUDIO
TITLE "Dangwa 'Three Points'"
PERFORMER "Manu Dibango"
INDEX 00 03:02:03
FILE "03 - Dangwa 'Three Points'.wav" WAVE
INDEX 01 00:00:00
TRACK 04 AUDIO
TITLE "O Boso"
PERFORMER "Manu Dibango"
INDEX 00 05:59:53
FILE "04 - O Boso.wav" WAVE
INDEX 01 00:00:00
TRACK 05 AUDIO
TITLE "New-Bell 'Hard Pulsation'"
PERFORMER "Manu Dibango"
INDEX 00 05:20:64
FILE "05 - New-Bell 'Hard Pulsation'.wav" WAVE
INDEX 01 00:00:00
TRACK 06 AUDIO
TITLE "Nights In Zeralda"
PERFORMER "Manu Dibango"
INDEX 00 06:47:62
FILE "06 - Nights In Zeralda.wav" WAVE
INDEX 01 00:00:00
TRACK 07 AUDIO
TITLE "Hibiscus"
PERFORMER "Manu Dibango"
INDEX 00 04:35:05
FILE "07 - Hibiscus.wav" WAVE
INDEX 01 00:00:00
Доп. информация:
 
скрытый текст
This pressing - MusiDisc, France, 331442
"Soul Makossa" is a 1972 single by Cameroonian makossa saxophonist Manu Dibango. It is often cited as one of the first disco records.[2] In 1972 David Mancuso found a copy in a Brooklyn West Indian record store and often played it at his Loft parties.[3] The response was so positive that the few copies of "Soul Makossa" in New York City were quickly bought up.[3] The song was subsequently played heavily by Frankie Crocker, who DJed at WBLS, then New York's most popular black radio station.[3] Since the original was now unfindable, at least 23 groups quickly released cover versions to capitalize on the demand for the record.[3] Atlantic eventually licensed the song from the French record label Fiesta.[3] Their release of it peaked at #35 on the Billboard chart in 1973; in 1999 Dave Marsh wrote that it was "the only African record by an African" to crack the top 40.[4] At one point there were nine different versions of the song in the Billboard chart.[5] It became "a massive hit" internationally as well.[5]
"Soul Makossa" was originally recorded as a B-side for "Mouvement Ewondo," a song about Cameroon's association football team.[5]
It is probably best remembered for the chanted vocal refrain "Mama-ko, mama-sa, ma-ka-ma-ko-ssa", which was also used in Michael Jackson's 1982 "Wanna Be Startin' Somethin'" (albeit in a different key with a not-so-monophonic melody) during the song's final bridge. It is also sampled in the hip hop song "Face Off" by artist Jay-Z on his album In My Lifetime, Vol. 1 as well as the single "Don't Stop the Music" by Rihanna. The song is also sampled on the intro to The Carnival, Wyclef Jean's first solo album. The phrase "ma ma say ah, ma ma coo sah" also appears in the fourth verse of the song "Rhythm (Devoted to the Art of Moving Butts)" by A Tribe Called Quest, and in "Mama Say," the debut single by the Bloodhound Gang. "Makossa" means "(I) dance" in Duala, a Cameroonian language.[6]
------------------------------------
Credits
* Arranged by Manu Dibango
* Written by Manu Dibango
* Bass by Long Manfred
* Drums by Joby Jobs
* Electric guitar by Manu Rodanet
* Percussion by Freddy Mars
* Piano by Georges Arvanitas, Patrice Galas
* Acoustic guitar by Pierre Zogo
[edit] References
1. ^ Manu Dibango discography on Discogs.com
2. ^ The History of Rock Music - The Seventies
3. ^ a b c d e Shapiro, Peter. Turn the Beat Around: the Secret History of Disco. New York: Faber and Faber, Inc., 2005., 35.
4. ^ Marsh, Dave. "The Heart of Rock and Soul: The 1001 Greatest Singles Ever Made". Da Capo Press, 1999., 548
5. ^ a b c Broughton, Simon; Mark Ellingham (2000). World Music: The Rough Guide. Rough Guides. p. 441.
6. ^ TRANS Nr. 13: George Echu (Yaounde): Multilingualism as a Resource: the Lexical Appropriation of Cameroon Indigenous Languages by English and French
7. ^ Billboard Pop Charts Allmusic.com
8. ^ R&B Billboard. Allmusic.com.
 
Об исполнителе (группе)
* Arranged by Manu Dibango
* Written by Manu Dibango
* Bass by Long Manfred
* Drums by Joby Jobs
* Electric guitar by Manu Rodanet
* Percussion by Freddy Mars
* Piano by Georges Arvanitas, Patrice Galas
* Acoustic guitar by Pierre Zogo
04:18
375
Нет комментариев. Ваш будет первым!