Поиск

(World Music, Latin Folk, Afro-Cuban, Mexican Traditions) Flor de Luna - Xochimetzli: Mexico, Magico, Mistico - 2005, FLAC (tracks+.cue), lossless

(World Music, Latin Folk, Afro-Cuban, Mexican Traditions) Flor de Luna - Xochimetzli: Mexico, Magico, Mistico - 2005, FLAC (tracks+.cue), lossless
Flor de Luna / Xochimetzli: Mexico, Magico, Mistico
Жанр: World Music, Latin Folk, Afro-Cuban, Mexican Traditions
Страна-производитель диска: Russia
Год издания диска: 2005
Страна: International
Аудиокодек: FLAC (*.flac)
Тип рипа: tracks+.cue
Битрейт аудио: lossless
Продолжительность: 00:49:28
Источник (релизер): duppyB
Наличие сканов в содержимом раздачи: да
Треклист:
1 Cuatro Vientos (Mosquera) 4:10
2 Acteal (Bernal) 7:24
3 México Tierra Soñada (Cano) 3:31
4 Tríptico Mexicano: I-Aztlan (À Don Raúl Gutiérrez Rojas) (Bernal) 2:10
5 Tríptico Mexicano: II-Tenochtitlan (À Edwige Tinel de Guitiérrez) (Bernal) 2:55
6 Tríptico Mexicano: III-Mesoamérica (Bernal) 3:25
7 Sí, Me Llamo América: I-Son Jarocho (Bernal) 6:35
8 Sí, Me Llamo América: II-SonCubano (Bernal) 5:45
9 Canto de Primavera (Portilla, Rodriguez) 2:01
10 Dadora de Mis Estrellas (Bernal) 4:19
11 Sin Nombre (Mosquera) 3:37
12 Tu Vereda Es de Flores (Bernal) 3:30
 
Лог создания рипа
Exact Audio Copy V1.0 beta 2 from 29. April 2011
EAC extraction logfile from 20. November 2011, 9:40
Flor de Luna / Xochimetzli: Mexico, Magico, Mistico
Used drive : ASUS DRW-24B3LT Adapter: 3 ID: 0
Read mode : Secure
Utilize accurate stream : Yes
Defeat audio cache : Yes
Make use of C2 pointers : No
Read offset correction : 6
Overread into Lead-In and Lead-Out : No
Fill up missing offset samples with silence : Yes
Delete leading and trailing silent blocks : No
Null samples used in CRC calculations : Yes
Used interface : Native Win32 interface for Win NT & 2000
Gap handling : Appended to previous track
Used output format : User Defined Encoder
Selected bitrate : 128 kBit/s
Quality : High
Add ID3 tag : No
Command line compressor : C:\Program Files\Exact Audio Copy\Flac\flac.exe
Additional command line options : -V -8 -T "Genre=%genre%" -T "Artist=%artist%" -T "Title=%title%" -T "Album=%albumtitle%" -T "Date=%year%" -T "Tracknumber=%tracknr%" -T "Comment=%comment%" %source%
TOC of the extracted CD
Track | Start | Length | Start sector | End sector
---------------------------------------------------------
1 | 0:00.00 | 4:10.61 | 0 | 18810
2 | 4:10.61 | 7:24.47 | 18811 | 52157
3 | 11:35.33 | 3:31.39 | 52158 | 68021
4 | 15:06.72 | 2:10.62 | 68022 | 77833
5 | 17:17.59 | 2:55.73 | 77834 | 91031
6 | 20:13.57 | 3:25.22 | 91032 | 106428
7 | 23:39.04 | 6:35.07 | 106429 | 136060
8 | 30:14.11 | 5:45.03 | 136061 | 161938
9 | 35:59.14 | 2:01.56 | 161939 | 171069
10 | 38:00.70 | 4:19.68 | 171070 | 190562
11 | 42:20.63 | 3:37.17 | 190563 | 206854
12 | 45:58.05 | 3:30.27 | 206855 | 222631
Track 1
Filename E:\Flor de Luna - Xochimetzli Mexico, Magico, Mistico (2005)\01. Cuatro Vientos.wav
Pre-gap length 0:00:02.00
Peak level 93.9 %
Extraction speed 3.4 X
Track quality 100.0 %
Test CRC 4A5454A1
Copy CRC 4A5454A1
Track not present in AccurateRip database
Copy OK
Track 2
Filename E:\Flor de Luna - Xochimetzli Mexico, Magico, Mistico (2005)\02. Acteal.wav
Peak level 90.9 %
Extraction speed 4.1 X
Track quality 100.0 %
Test CRC FA29E551
Copy CRC FA29E551
Track not present in AccurateRip database
Copy OK
Track 3
Filename E:\Flor de Luna - Xochimetzli Mexico, Magico, Mistico (2005)\03. Mexico Tierra Sonada.wav
Peak level 89.7 %
Extraction speed 4.3 X
Track quality 100.0 %
Test CRC F597148A
Copy CRC F597148A
Track not present in AccurateRip database
Copy OK
Track 4
Filename E:\Flor de Luna - Xochimetzli Mexico, Magico, Mistico (2005)\04. Triptico Mexicano- I-Aztlan.wav
Peak level 91.5 %
Extraction speed 3.0 X
Track quality 99.9 %
Test CRC CBFAD3BE
Copy CRC CBFAD3BE
Track not present in AccurateRip database
Copy OK
Track 5
Filename E:\Flor de Luna - Xochimetzli Mexico, Magico, Mistico (2005)\05. Triptico Mexicano- II-Tenochtitlan.wav
Peak level 88.8 %
Extraction speed 3.4 X
Track quality 99.9 %
Test CRC 0E766053
Copy CRC 0E766053
Track not present in AccurateRip database
Copy OK
Track 6
Filename E:\Flor de Luna - Xochimetzli Mexico, Magico, Mistico (2005)\06. Triptico Mexicano- III-Mesoamerica.wav
Peak level 90.4 %
Extraction speed 4.9 X
Track quality 100.0 %
Test CRC ED274672
Copy CRC ED274672
Track not present in AccurateRip database
Copy OK
Track 7
Filename E:\Flor de Luna - Xochimetzli Mexico, Magico, Mistico (2005)\07. Si, Me Llamo America- I-Son Jarocho.wav
Peak level 89.5 %
Extraction speed 4.9 X
Track quality 99.9 %
Test CRC 9E9B17E2
Copy CRC 9E9B17E2
Track not present in AccurateRip database
Copy OK
Track 8
Filename E:\Flor de Luna - Xochimetzli Mexico, Magico, Mistico (2005)\08. Si, Me Llamo America- II-Son Cubano.wav
Peak level 90.8 %
Extraction speed 6.0 X
Track quality 100.0 %
Test CRC 03AB8214
Copy CRC 03AB8214
Track not present in AccurateRip database
Copy OK
Track 9
Filename E:\Flor de Luna - Xochimetzli Mexico, Magico, Mistico (2005)\09. Canto de Primavera.wav
Peak level 91.6 %
Extraction speed 5.2 X
Track quality 100.0 %
Test CRC 37CAB363
Copy CRC 37CAB363
Track not present in AccurateRip database
Copy OK
Track 10
Filename E:\Flor de Luna - Xochimetzli Mexico, Magico, Mistico (2005)\10. Dadora de Mis Estrellas.wav
Peak level 94.5 %
Extraction speed 5.0 X
Track quality 99.9 %
Test CRC 6156E7FD
Copy CRC 6156E7FD
Track not present in AccurateRip database
Copy OK
Track 11
Filename E:\Flor de Luna - Xochimetzli Mexico, Magico, Mistico (2005)\11. Sin Nombre.wav
Peak level 88.8 %
Extraction speed 6.3 X
Track quality 100.0 %
Test CRC 5BAC4ED2
Copy CRC 5BAC4ED2
Track not present in AccurateRip database
Copy OK
Track 12
Filename E:\Flor de Luna - Xochimetzli Mexico, Magico, Mistico (2005)\12. Tu Vereda Es de Flores.wav
Peak level 93.9 %
Extraction speed 6.5 X
Track quality 100.0 %
Test CRC 34C9B793
Copy CRC 34C9B793
Track not present in AccurateRip database
Copy OK
None of the tracks are present in the AccurateRip database
No errors occurred
End of status report
==== Log checksum C4605A8ED0C930D4B0C96985FCFC8EB928E643CB8EAAF4543FCD986AE7FA15B2 ====
 
Содержание индексной карты (.CUE)
REM GENRE Jazz
REM DATE 2005
REM DISCID 940B980C
REM COMMENT "ExactAudioCopy v1.0b2"
PERFORMER "Flor de Luna"
TITLE "Xochimetzli: Mexico, Magico, Mistico"
FILE "01. Cuatro Vientos.wav" WAVE
TRACK 01 AUDIO
TITLE "Cuatro Vientos"
PERFORMER "Flor de Luna"
INDEX 01 00:00:00
FILE "02. Acteal.wav" WAVE
TRACK 02 AUDIO
TITLE "Acteal"
PERFORMER "Flor de Luna"
INDEX 01 00:00:00
FILE "03. Mexico Tierra Sonada.wav" WAVE
TRACK 03 AUDIO
TITLE "Mexico Tierra Sonada"
PERFORMER "Flor de Luna"
INDEX 01 00:00:00
FILE "04. Triptico Mexicano- I-Aztlan.wav" WAVE
TRACK 04 AUDIO
TITLE "Triptico Mexicano: I-Aztlan"
PERFORMER "Flor de Luna"
INDEX 01 00:00:00
FILE "05. Triptico Mexicano- II-Tenochtitlan.wav" WAVE
TRACK 05 AUDIO
TITLE "Triptico Mexicano: II-Tenochtitlan"
PERFORMER "Flor de Luna"
INDEX 01 00:00:00
FILE "06. Triptico Mexicano- III-Mesoamerica.wav" WAVE
TRACK 06 AUDIO
TITLE "Triptico Mexicano: III-Mesoamerica"
PERFORMER "Flor de Luna"
INDEX 01 00:00:00
FILE "07. Si, Me Llamo America- I-Son Jarocho.wav" WAVE
TRACK 07 AUDIO
TITLE "Si, Me Llamo America: I-Son Jarocho"
PERFORMER "Flor de Luna"
INDEX 01 00:00:00
FILE "08. Si, Me Llamo America- II-Son Cubano.wav" WAVE
TRACK 08 AUDIO
TITLE "Si, Me Llamo America: II-Son Cubano"
PERFORMER "Flor de Luna"
INDEX 01 00:00:00
FILE "09. Canto de Primavera.wav" WAVE
TRACK 09 AUDIO
TITLE "Canto de Primavera"
PERFORMER "Flor de Luna"
INDEX 01 00:00:00
FILE "10. Dadora de Mis Estrellas.wav" WAVE
TRACK 10 AUDIO
TITLE "Dadora de Mis Estrellas"
PERFORMER "Flor de Luna"
INDEX 01 00:00:00
FILE "11. Sin Nombre.wav" WAVE
TRACK 11 AUDIO
TITLE "Sin Nombre"
PERFORMER "Flor de Luna"
INDEX 01 00:00:00
FILE "12. Tu Vereda Es de Flores.wav" WAVE
TRACK 12 AUDIO
TITLE "Tu Vereda Es de Flores"
PERFORMER "Flor de Luna"
INDEX 01 00:00:00
 
Лог проверки качества
-----------------------
DON'T MODIFY THIS FILE
-----------------------
PERFORMER: auCDtect Task Manager, ver. 1.5.1RC4 build 1.5.1.5
Copyright (c) 2008-2010 y-soft. All rights reserved
http://y-soft.org
ANALYZER: auCDtect: CD records authenticity detector, version 0.8.2
Copyright (c) 2004 Oleg Berngardt. All rights reserved.
Copyright (c) 2004 Alexander Djourik. All rights reserved.
FILE: 12. Tu Vereda Es de Flores.flac
Size: 18605721 Hash: 50A331E2FD1A7C2CCC69D2774EB0DA88 Accuracy: -m0
Conclusion: CDDA 99%
Signature: 73F65EE769BA1D98A8FD477D1A7A48ED5D7D9DE5
FILE: 11. Sin Nombre.flac
Size: 19011452 Hash: 1ECD7C75EC470F901A9D5D8F6EA00D86 Accuracy: -m0
Conclusion: CDDA 100%
Signature: 76E823BCAEC6E4C2720F4B33903C90E119322EE4
FILE: 10. Dadora de Mis Estrellas.flac
Size: 20710969 Hash: D4848BBFA5BA5940DE4A0FC73DBB4BE0 Accuracy: -m0
Conclusion: CDDA 99%
Signature: 3E8A7E1D335D1C9AD54DBE1F0C8D111DDFE6CD48
FILE: 09. Canto de Primavera.flac
Size: 10846604 Hash: 0134E3CBB543AC668E85239E34B53ECB Accuracy: -m0
Conclusion: CDDA 100%
Signature: AAEEC83D6D0385FA76AAF5471A7FAF3CB6980F0A
FILE: 08. Si, Me Llamo America- II-Son Cubano.flac
Size: 29372544 Hash: 5812283AE9F5D4460B606C2C813F02D3 Accuracy: -m0
Conclusion: CDDA 100%
Signature: FEC0D52EF4C11C861D7C81DBDBF758A9CE59A83F
FILE: 07. Si, Me Llamo America- I-Son Jarocho.flac
Size: 40773572 Hash: 83C713649F4C783626FDDBA99930FB26 Accuracy: -m0
Conclusion: CDDA 100%
Signature: E74EA39DD4C30BDE2238ED0AD23EE7823FEE6ED2
FILE: 06. Triptico Mexicano- III-Mesoamerica.flac
Size: 18620875 Hash: 0235B0B50A29BA35AAF8F18C213521B0 Accuracy: -m0
Conclusion: CDDA 100%
Signature: BDAEF2AD80B87F4506BDC8821248BEACFB99C603
FILE: 05. Triptico Mexicano- II-Tenochtitlan.flac
Size: 14619941 Hash: 3818CAE16E6E98FCD46BCCB6D38FEEE5 Accuracy: -m0
Conclusion: CDDA 100%
Signature: 25E5B6E43B41786A46E93D64E3F30FE3EB9AC4BF
FILE: 04. Triptico Mexicano- I-Aztlan.flac
Size: 12482753 Hash: 0798C1E26AC6B8654EBF6A931F23E1DC Accuracy: -m0
Conclusion: CDDA 100%
Signature: AA96A3A9FD6A332281F6051491775C943AB896CC
FILE: 03. Mexico Tierra Sonada.flac
Size: 22138200 Hash: 346F9DF683BE6B329CC69279BEAEA76F Accuracy: -m0
Conclusion: CDDA 100%
Signature: F30CE46F4D316C2E0BACB66532DD5A4C98A21E95
FILE: 02. Acteal.flac
Size: 37162684 Hash: BA241D56E6529EB64DD1407B7910E966 Accuracy: -m0
Conclusion: CDDA 100%
Signature: EE5062FEA385803692224A5EA032E91446B077E8
FILE: 01. Cuatro Vientos.flac
Size: 24191580 Hash: 740E525FDA24AFCB03BA4AEBB4AB6BDE Accuracy: -m0
Conclusion: CDDA 100%
Signature: CD66F393DBC465C13F4FA532EBEAD6AE1FB65805
 
Об альбоме (сборнике)
Flor de Luna (Moon Flower) is dedicated to the sounds of pre-Colombian Mexico. As with Celtic music, it is very difficult to recreate the music that was played by the Aztecs or Mayans centuries ago. Instead, the musicians who participated in Xochimetzli: México, Mágico, Místico have assembles a wide array of instruments from Mexico, the Caribbean and South America. Instruments such as huéhuetl, hue hue, batá drums, concha marina (sea shell), whistles, ocarinas, kena, guimbarda (jew’s harp), jarana guitar, requinto jarocho, quinta de golpe guitar, vihuela, guitarrón and a few more.Flor de Luna is an offshoot of a group of Latin American musicians who founded La Calaca a few years back. The group’s aim was to explore traditional Mexican music. The three founding musicians, Alfonso R. Mosquera (Ecuador), Gildardo Mejia Rodriguez (Mexico) and Gerardo Gutierrez Bernal (Mexico), are all steeped in the music and culture of Latin America. The intriguing album also features guests such as Indian violinist Dr. L Subramanian, Cuban musician Orlando Valle and several French musicians. The musical pieces are inspired by Mexican son jarocho, Cuban son and many other influences . By ARomero
 
Состав
Dr L. Subramaniam, Alexis Cardenas, Marie-Ianick Massot - Violone
Ofelia Medina, Martha Ruales - Chant
Orlando "Maraca" Valle - Transverse Flute
Marcel Loefeler - Accordion
Gilles Coauard - Guitare
Aldo Guinart - Transverse Flute & Tenor Saxophone
Juan DeDios Márquez "Ttlly"- Congas, Bongos, Cajon afroperuano, Maracas, guiro, claves, cencerro
Jean-Pierre Daueer "El Goloi" - Contrabass
Francisco Gonzalez Giraldo - Requinto jarooho, Jarana jarocha, Choaurs
Andre Mazure : Trumpet
Rodrigo Mosauera - Guitars, Concha, Basse electrique y tres cubano
Gildardo Mejía Rodriquez - 6-String Electric Bass, Claves, Conch, Group, Guitar, Guitarron, Huapanguera, Vihuela
Santiago Cano - Bugle, Trumpet
Gerardo Gutiérrez Bernal - African Percussion, Baton De Pluie, Bongos, Chant, Claves, Director, Flute, Group, Guimbri, Guiro, Guitar, Jarana, Kena, Maracas, Mastering, Mixing, Musical Direction, Native American Flute, Percussion, Tambour Basse, Teponaxtle, Transverse Flute, Vibraslap, Vihuela
Groupe La Calaca
00:58
311
Нет комментариев. Ваш будет первым!