Поиск

(World, Latin Jazz, Pop-Jazz) Pink Martini - Get Happy - 2013, FLAC (tracks+.cue), lossless

(World, Latin Jazz, Pop-Jazz) Pink Martini - Get Happy - 2013, FLAC (tracks+.cue), lossless
Треклист:
Pink Martini / Get Happy
Жанр: World, Latin Jazz, Pop-Jazz
Год издания: 2013
Издатель (лейбл): Heinz
Страна: US
Аудиокодек: FLAC (*.flac)
Тип рипа: tracks+.cue
Битрейт аудио: lossless
Продолжительность: 54:29
Источник (релизер): what.cd
Наличие сканов в содержимом раздачи: нет
Треклист:
1. Smile (Phyllis Diller)
2. Ich dich liebe (China Forbes)
3. Quizas quizas quizas (Storm Large)
4. Zundoko (Timothy Nishimoto)
5. Je ne t'aime plus (China Forbes & Philippe Katerine)
6. Yo te quiero siempre (Ari Shapiro)
7. I'm Waiting For You (Meow Meow)
8. Omide zendegani (Storm Large)
9. Uskudar (China Forbes)
10. Pana cand (Storm Large)
11. She Was Too Good To Me (Robert Taylor)
12. Sway (Storm Large)
13. Kitty Come Home (Rufus Wainwright with The von Trapps)
14. Get Happy/Happy Days (China Forbes & Rufus Wainwright)
15. What'll I Do? (China Forbes)
16. Heliotrope Bouquet (instrumental)
http://pinkmartini.com/
 
Лог создания рипа
Exact Audio Copy V1.0 beta 3 from 29. August 2011
EAC extraction logfile from 24. September 2013, 23:50
Pink Martini / Get Happy
Used drive : hp DVD A DS8A9SH Adapter: 0 ID: 0
Read mode : Secure
Utilize accurate stream : Yes
Defeat audio cache : Yes
Make use of C2 pointers : No
Read offset correction : 6
Overread into Lead-In and Lead-Out : No
Fill up missing offset samples with silence : Yes
Delete leading and trailing silent blocks : No
Null samples used in CRC calculations : Yes
Used interface : Native Win32 interface for Win NT & 2000
Gap handling : Appended to previous track
Used output format : User Defined Encoder
Selected bitrate : 1024 kBit/s
Quality : High
Add ID3 tag : No
Command line compressor : C:\Program Files (x86)\Exact Audio Copy\FLAC\FLAC.EXE
Additional command line options : -6 -V -T "ARTIST=%artist%" -T "TITLE=%title%" -T "ALBUM=%albumtitle%" -T "DATE=%year%" -T "TRACKNUMBER=%tracknr%" -T "GENRE=%genre%" -T "COMMENT=%comment%" -T "BAND=%albuminterpret%" -T "ALBUMARTIST=%albuminterpret%" -T "COMPOSER=%composer%" %haslyrics%--tag-from-file=LYRICS="%lyricsfile%"%haslyrics% -T "DISCNUMBER=%cdnumber%" -T "TOTALDISCS=%totalcds%" -T "TOTALTRACKS=%numtracks%" %hascover%--picture="%coverfile%"%hascover% %source% -o %dest%
TOC of the extracted CD
Track | Start | Length | Start sector | End sector
---------------------------------------------------------
1 | 0:00.00 | 2:36.37 | 0 | 11736
2 | 2:36.37 | 3:18.65 | 11737 | 26651
3 | 5:55.27 | 3:20.20 | 26652 | 41671
4 | 9:15.47 | 3:41.18 | 41672 | 58264
5 | 12:56.65 | 3:25.28 | 58265 | 73667
6 | 16:22.18 | 4:09.50 | 73668 | 92392
7 | 20:31.68 | 2:11.16 | 92393 | 102233
8 | 22:43.09 | 5:21.24 | 102234 | 126332
9 | 28:04.33 | 4:47.53 | 126333 | 147910
10 | 32:52.11 | 3:06.10 | 147911 | 161870
11 | 35:58.21 | 3:39.18 | 161871 | 178313
12 | 39:37.39 | 4:19.49 | 178314 | 197787
13 | 43:57.13 | 3:16.63 | 197788 | 212550
14 | 47:14.01 | 2:22.06 | 212551 | 223206
15 | 49:36.07 | 1:10.27 | 223207 | 228483
16 | 50:46.34 | 2:48.41 | 228484 | 241124
Track 1
Filename C:\Users\bee\Desktop\riper\Pink Martini-Get Happy (2013)\01 Ich dich liebe (China Forbes).wav
Peak level 100.0 %
Extraction speed 2.7 X
Track quality 100.0 %
Test CRC 0A8E61E7
Copy CRC 0A8E61E7
Track not present in AccurateRip database
Copy OK
Track 2
Filename C:\Users\bee\Desktop\riper\Pink Martini-Get Happy (2013)\02 Quizas quizas quizas (Storn Lar.wav
Peak level 100.0 %
Extraction speed 2.6 X
Track quality 99.9 %
Test CRC 6B4067A9
Copy CRC 6B4067A9
Track not present in AccurateRip database
Copy OK
Track 3
Filename C:\Users\bee\Desktop\riper\Pink Martini-Get Happy (2013)\03 I'm Waiting For You (Meow Meow).wav
Peak level 95.9 %
Extraction speed 3.2 X
Track quality 100.0 %
Test CRC E0C376F8
Copy CRC E0C376F8
Track not present in AccurateRip database
Copy OK
Track 4
Filename C:\Users\bee\Desktop\riper\Pink Martini-Get Happy (2013)\04 Omide zendegani (Storm Large).wav
Peak level 100.0 %
Extraction speed 3.5 X
Track quality 100.0 %
Test CRC 44FDEF9A
Copy CRC 44FDEF9A
Track not present in AccurateRip database
Copy OK
Track 5
Filename C:\Users\bee\Desktop\riper\Pink Martini-Get Happy (2013)\05 Yo te quiero siempre (Ari Shapi.wav
Peak level 100.0 %
Extraction speed 3.7 X
Track quality 100.0 %
Test CRC 5D271F01
Copy CRC 5D271F01
Track not present in AccurateRip database
Copy OK
Track 6
Filename C:\Users\bee\Desktop\riper\Pink Martini-Get Happy (2013)\06 Je ne t'aime plus (China Forbes.wav
Peak level 99.5 %
Extraction speed 3.5 X
Track quality 99.9 %
Test CRC A2BC52E1
Copy CRC A2BC52E1
Track not present in AccurateRip database
Copy OK
Track 7
Filename C:\Users\bee\Desktop\riper\Pink Martini-Get Happy (2013)\07 Zundoko Bushi (Timothy Mishimot.wav
Peak level 99.4 %
Extraction speed 3.7 X
Track quality 100.0 %
Test CRC B0933797
Copy CRC B0933797
Track not present in AccurateRip database
Copy OK
Track 8
Filename C:\Users\bee\Desktop\riper\Pink Martini-Get Happy (2013)\08 Oana Cand Nu Te Iubean (Storm L.wav
Peak level 100.0 %
Extraction speed 4.4 X
Track quality 100.0 %
Test CRC 5675234B
Copy CRC 5675234B
Track not present in AccurateRip database
Copy OK
Track 9
Filename C:\Users\bee\Desktop\riper\Pink Martini-Get Happy (2013)\09 She Was Too Good To Me (Robert.wav
Peak level 100.0 %
Extraction speed 4.6 X
Track quality 100.0 %
Test CRC E66E8455
Copy CRC E66E8455
Track not present in AccurateRip database
Copy OK
Track 10
Filename C:\Users\bee\Desktop\riper\Pink Martini-Get Happy (2013)\10 Uskudar (China Forbes).wav
Peak level 100.0 %
Extraction speed 4.5 X
Track quality 100.0 %
Test CRC 5BDD1D26
Copy CRC 5BDD1D26
Track not present in AccurateRip database
Copy OK
Track 11
Filename C:\Users\bee\Desktop\riper\Pink Martini-Get Happy (2013)\11 Sway (Storm Large).wav
Peak level 100.0 %
Extraction speed 4.8 X
Track quality 100.0 %
Test CRC FF150A52
Copy CRC FF150A52
Track not present in AccurateRip database
Copy OK
Track 12
Filename C:\Users\bee\Desktop\riper\Pink Martini-Get Happy (2013)\12 Kitty Come Home (with Rufus Wai.wav
Peak level 95.1 %
Extraction speed 5.0 X
Track quality 100.0 %
Test CRC FB181A19
Copy CRC FB181A19
Track not present in AccurateRip database
Copy OK
Track 13
Filename C:\Users\bee\Desktop\riper\Pink Martini-Get Happy (2013)\13 What'll I do (China Forbes).wav
Peak level 92.6 %
Extraction speed 4.3 X
Track quality 99.9 %
Test CRC 12CBBE5E
Copy CRC 12CBBE5E
Track not present in AccurateRip database
Copy OK
Track 14
Filename C:\Users\bee\Desktop\riper\Pink Martini-Get Happy (2013)\14 Get Happy,Happy Days (China For.wav
Peak level 100.0 %
Extraction speed 3.9 X
Track quality 99.9 %
Test CRC 4A0B88FC
Copy CRC 4A0B88FC
Track not present in AccurateRip database
Copy OK
Track 15
Filename C:\Users\bee\Desktop\riper\Pink Martini-Get Happy (2013)\15 Heliotrope Bouquet (instrumenta.wav
Peak level 93.5 %
Extraction speed 3.0 X
Track quality 99.8 %
Test CRC C3C94338
Copy CRC C3C94338
Track not present in AccurateRip database
Copy OK
Track 16
Filename C:\Users\bee\Desktop\riper\Pink Martini-Get Happy (2013)\16 Smile (Phyllis Diller).wav
Peak level 79.2 %
Extraction speed 5.0 X
Track quality 100.0 %
Test CRC 2BF2788D
Copy CRC 2BF2788D
Track not present in AccurateRip database
Copy OK
None of the tracks are present in the AccurateRip database
No errors occurred
End of status report
---- CUETools DB Plugin V2.1.4
[CTDB TOCID: YYvtYgL9IR5.ySLwmcTb46XkLuk-] disk not present in database
Submit result: YYvtYgL9IR5.ySLwmcTb46XkLuk- has been uploaded
==== Log checksum A8603F5395F8165C14FB3B57151D8F14BEDAF9CED58116B5C14F2EF0EFB7F2E9 ====
 
Содержание индексной карты (.CUE)
REM GENRE Pop
REM DATE 2013
REM DISCID 0C0C8F10
REM COMMENT "ExactAudioCopy v1.0b3"
PERFORMER "Pink Martini"
TITLE "Get Happy"
FILE "01 Ich dich liebe (China Forbes).wav" WAVE
TRACK 01 AUDIO
TITLE "Ich dich liebe (China Forbes) "
PERFORMER "Pink Martini"
INDEX 01 00:00:00
FILE "02 Quizas quizas quizas (Storn Lar.wav" WAVE
TRACK 02 AUDIO
TITLE "Quizas quizas quizas (Storn Lar"
PERFORMER "Pink Martini"
INDEX 01 00:00:00
FILE "03 I'm Waiting For You (Meow Meow).wav" WAVE
TRACK 03 AUDIO
TITLE "I'm Waiting For You (Meow Meow)"
PERFORMER "Pink Martini"
INDEX 01 00:00:00
FILE "04 Omide zendegani (Storm Large).wav" WAVE
TRACK 04 AUDIO
TITLE "Omide zendegani (Storm Large) "
PERFORMER "Pink Martini"
INDEX 01 00:00:00
FILE "05 Yo te quiero siempre (Ari Shapi.wav" WAVE
TRACK 05 AUDIO
TITLE "Yo te quiero siempre (Ari Shapi"
PERFORMER "Pink Martini"
INDEX 01 00:00:00
FILE "06 Je ne t'aime plus (China Forbes.wav" WAVE
TRACK 06 AUDIO
TITLE "Je ne t'aime plus (China Forbes"
PERFORMER "Pink Martini"
INDEX 01 00:00:00
FILE "07 Zundoko Bushi (Timothy Mishimot.wav" WAVE
TRACK 07 AUDIO
TITLE "Zundoko Bushi (Timothy Mishimot"
PERFORMER "Pink Martini"
INDEX 01 00:00:00
FILE "08 Oana Cand Nu Te Iubean (Storm L.wav" WAVE
TRACK 08 AUDIO
TITLE "Oana Cand Nu Te Iubean (Storm L"
PERFORMER "Pink Martini"
INDEX 01 00:00:00
FILE "09 She Was Too Good To Me (Robert.wav" WAVE
TRACK 09 AUDIO
TITLE "She Was Too Good To Me (Robert "
PERFORMER "Pink Martini"
INDEX 01 00:00:00
FILE "10 Uskudar (China Forbes).wav" WAVE
TRACK 10 AUDIO
TITLE "Uskudar (China Forbes) "
PERFORMER "Pink Martini"
INDEX 01 00:00:00
FILE "11 Sway (Storm Large).wav" WAVE
TRACK 11 AUDIO
TITLE "Sway (Storm Large) "
PERFORMER "Pink Martini"
INDEX 01 00:00:00
FILE "12 Kitty Come Home (with Rufus Wai.wav" WAVE
TRACK 12 AUDIO
TITLE "Kitty Come Home (with Rufus Wai"
PERFORMER "Pink Martini"
INDEX 01 00:00:00
FILE "13 What'll I do (China Forbes).wav" WAVE
TRACK 13 AUDIO
TITLE "What'll I do? (China Forbes) "
PERFORMER "Pink Martini"
INDEX 01 00:00:00
FILE "14 Get Happy,Happy Days (China For.wav" WAVE
TRACK 14 AUDIO
TITLE "Get Happy/Happy Days (China For"
PERFORMER "Pink Martini"
INDEX 01 00:00:00
FILE "15 Heliotrope Bouquet (instrumenta.wav" WAVE
TRACK 15 AUDIO
TITLE "Heliotrope Bouquet (instrumenta"
PERFORMER "Pink Martini"
INDEX 01 00:00:00
FILE "16 Smile (Phyllis Diller).wav" WAVE
TRACK 16 AUDIO
TITLE "Smile (Phyllis Diller) "
PERFORMER "Pink Martini"
INDEX 01 00:00:00
13:16
285
Нет комментариев. Ваш будет первым!