Поиск

(World Jazz/Modern Creative/New Age) Oregon - Our First Record - 2004 (Original. 1970), FLAC (tracks+.cue), lossless

(World Jazz/Modern Creative/New Age) Oregon - Our First Record - 2004 (Original. 1970), FLAC (tracks+.cue), lossless
Треклист:
Oregon / Our First Record
Жанр: World Jazz/Modern Creative/New Age
Страна-производитель диска: Japan
Год издания диска: 2004 (Orig. 1970)
Издатель (лейбл): Vanguard Records/Jasrac
Номер по каталогу: MTCJ-2550
Страна: USA
Аудиокодек: FLAC (*.flac)
Тип рипа: tracks+.cue
Битрейт аудио: lossless
Продолжительность: 47:47
Источник (релизер): funky_cat
Наличие сканов в содержимом раздачи: да
Треклист:
1 Canyon Song 02:47
2 Full Circle 04:42
3 Japan - Charles St. Melancholy 03:35
4 Collin's Delite 03:42
5 Cry of the Peacock- Coral 06:26
6 Mary's New Bloom 02:20
7 Aheer 07:07
8 Recuerdos 03:40
9 L'Histoire du Farm Suite 03:51
10 Jade vision 03:22
11 Molecular 01:34
12 Margueritte 03:31
13 Entrez Devotée Compagne 01:03
 
Лог создания рипа
X Lossless Decoder version 20110703 (135.1)
XLD extraction logfile from 2011-08-03 14:18:32 +0400
Oregon / Our First Record
Used drive : HL-DT-ST DVDRW GS23N (revision SB00)
Ripper mode : CDParanoia III 10.2
Disable audio cache : OK for the drive with a cache less than 2750KiB
Make use of C2 pointers : NO
Read offset correction : 667
Max retry count : 10
Gap status : Analyzed, Appended
TOC of the extracted CD
Track | Start | Length | Start sector | End sector
---------------------------------------------------------
1 | 00:00:00 | 02:47:00 | 0 | 12524
2 | 02:47:00 | 04:42:70 | 12525 | 33744
3 | 07:29:70 | 03:35:55 | 33745 | 49924
4 | 11:05:50 | 03:42:57 | 49925 | 66631
5 | 14:48:32 | 06:26:53 | 66632 | 95634
6 | 21:15:10 | 02:20:57 | 95635 | 106191
7 | 23:35:67 | 07:07:48 | 106192 | 138264
8 | 30:43:40 | 03:40:55 | 138265 | 154819
9 | 34:24:20 | 03:51:37 | 154820 | 172181
10 | 38:15:57 | 03:22:63 | 172182 | 187394
11 | 41:38:45 | 01:34:25 | 187395 | 194469
12 | 43:12:70 | 03:31:42 | 194470 | 210336
13 | 46:44:37 | 01:03:33 | 210337 | 215094
AccurateRip Summary
Track 01 : OK (confidence 1)
Track 02 : OK (confidence 1)
Track 03 : OK (confidence 1)
Track 04 : OK (confidence 1)
Track 05 : OK (confidence 1)
Track 06 : OK (confidence 1)
Track 07 : OK (confidence 1)
Track 08 : OK (confidence 1)
Track 09 : OK (confidence 1)
Track 10 : OK (confidence 1)
Track 11 : OK (confidence 1)
Track 12 : OK (confidence 1)
Track 13 : OK (confidence 1)
->All tracks accurately ripped.
All Tracks
Album gain : -1.46 dB
Peak : 0.980164
Statistics
Read error : 0
Skipped (treated as error) : 0
Edge jitter error (maybe fixed) : 0
Atom jitter error (maybe fixed) : 1
Drift error (maybe fixed) : 0
Dropped bytes error (maybe fixed) : 0
Duplicated bytes error (maybe fixed) : 0
Track 01
Filename : /Users/olegbelov/Downloads/Oregon - Our First Record (1970)/01 - Canyon Song.flac
Pre-gap length : 00:02:00
Track gain : -0.87 dB
Peak : 0.979614
CRC32 hash (test run) : 550B25EE
CRC32 hash : 550B25EE
CRC32 hash (skip zero) : CFA75A6D
AccurateRip signature : 08193293
->Accurately ripped! (confidence 1)
Statistics
Read error : 0
Skipped (treated as error) : 0
Edge jitter error (maybe fixed) : 0
Atom jitter error (maybe fixed) : 0
Drift error (maybe fixed) : 0
Dropped bytes error (maybe fixed) : 0
Duplicated bytes error (maybe fixed) : 0
Inconsistency in error sectors : 0
Track 02
Filename : /Users/olegbelov/Downloads/Oregon - Our First Record (1970)/02 - Full Circle.flac
Track gain : 2.11 dB
Peak : 0.976929
CRC32 hash (test run) : F784F6BB
CRC32 hash : F784F6BB
CRC32 hash (skip zero) : E96FFF60
AccurateRip signature : 3F3DBBA0
->Accurately ripped! (confidence 1)
Statistics
Read error : 0
Skipped (treated as error) : 0
Edge jitter error (maybe fixed) : 0
Atom jitter error (maybe fixed) : 0
Drift error (maybe fixed) : 0
Dropped bytes error (maybe fixed) : 0
Duplicated bytes error (maybe fixed) : 0
Inconsistency in error sectors : 0
Track 03
Filename : /Users/olegbelov/Downloads/Oregon - Our First Record (1970)/03 - Japan - Charles St. Melancholy.flac
Track gain : 0.98 dB
Peak : 0.838501
CRC32 hash (test run) : B69BFD30
CRC32 hash : B69BFD30
CRC32 hash (skip zero) : 9FEF404D
AccurateRip signature : C3750079
->Accurately ripped! (confidence 1)
Statistics
Read error : 0
Skipped (treated as error) : 0
Edge jitter error (maybe fixed) : 0
Atom jitter error (maybe fixed) : 0
Drift error (maybe fixed) : 0
Dropped bytes error (maybe fixed) : 0
Duplicated bytes error (maybe fixed) : 0
Inconsistency in error sectors : 0
Track 04
Filename : /Users/olegbelov/Downloads/Oregon - Our First Record (1970)/04 - Collin's Delite.flac
Track gain : -0.58 dB
Peak : 0.972870
CRC32 hash (test run) : CEE5222F
CRC32 hash : CEE5222F
CRC32 hash (skip zero) : 20168722
AccurateRip signature : 7947772E
->Accurately ripped! (confidence 1)
Statistics
Read error : 0
Skipped (treated as error) : 0
Edge jitter error (maybe fixed) : 0
Atom jitter error (maybe fixed) : 0
Drift error (maybe fixed) : 0
Dropped bytes error (maybe fixed) : 0
Duplicated bytes error (maybe fixed) : 0
Inconsistency in error sectors : 0
Track 05
Filename : /Users/olegbelov/Downloads/Oregon - Our First Record (1970)/05 - Cry of the Peacock- Coral.flac
Track gain : -0.58 dB
Peak : 0.976746
CRC32 hash (test run) : 38261474
CRC32 hash : 38261474
CRC32 hash (skip zero) : 5596714A
AccurateRip signature : AAE5B785
->Accurately ripped! (confidence 1)
Statistics
Read error : 0
Skipped (treated as error) : 0
Edge jitter error (maybe fixed) : 0
Atom jitter error (maybe fixed) : 0
Drift error (maybe fixed) : 0
Dropped bytes error (maybe fixed) : 0
Duplicated bytes error (maybe fixed) : 0
Inconsistency in error sectors : 0
Track 06
Filename : /Users/olegbelov/Downloads/Oregon - Our First Record (1970)/06 - Mary's New Bloom.flac
Track gain : 1.64 dB
Peak : 0.852051
CRC32 hash (test run) : C51B90D8
CRC32 hash : C51B90D8
CRC32 hash (skip zero) : 4800CED5
AccurateRip signature : 82782C0D
->Accurately ripped! (confidence 1)
Statistics
Read error : 0
Skipped (treated as error) : 0
Edge jitter error (maybe fixed) : 0
Atom jitter error (maybe fixed) : 0
Drift error (maybe fixed) : 0
Dropped bytes error (maybe fixed) : 0
Duplicated bytes error (maybe fixed) : 0
Inconsistency in error sectors : 0
Track 07
Filename : /Users/olegbelov/Downloads/Oregon - Our First Record (1970)/07 - Aheer.flac
Track gain : -1.04 dB
Peak : 0.979645
CRC32 hash (test run) : 0DF5722A
CRC32 hash : 0DF5722A
CRC32 hash (skip zero) : ECAAB4BB
AccurateRip signature : 68D64EDC
->Accurately ripped! (confidence 1)
Statistics
Read error : 0
Skipped (treated as error) : 0
Edge jitter error (maybe fixed) : 0
Atom jitter error (maybe fixed) : 0
Drift error (maybe fixed) : 0
Dropped bytes error (maybe fixed) : 0
Duplicated bytes error (maybe fixed) : 0
Inconsistency in error sectors : 0
Track 08
Filename : /Users/olegbelov/Downloads/Oregon - Our First Record (1970)/08 - Recuerdos.flac
Track gain : -5.56 dB
Peak : 0.980164
CRC32 hash (test run) : EA752B59
CRC32 hash : EA752B59
CRC32 hash (skip zero) : 613D846C
AccurateRip signature : 5B9A94F7
->Accurately ripped! (confidence 1)
Statistics
Read error : 0
Skipped (treated as error) : 0
Edge jitter error (maybe fixed) : 0
Atom jitter error (maybe fixed) : 0
Drift error (maybe fixed) : 0
Dropped bytes error (maybe fixed) : 0
Duplicated bytes error (maybe fixed) : 0
Inconsistency in error sectors : 0
Track 09
Filename : /Users/olegbelov/Downloads/Oregon - Our First Record (1970)/09 - L'Histoire du Farm Suite.flac
Track gain : -0.24 dB
Peak : 0.979340
CRC32 hash (test run) : 20E5B0C5
CRC32 hash : 20E5B0C5
CRC32 hash (skip zero) : 52827E2D
AccurateRip signature : 215F8513
->Accurately ripped! (confidence 1)
Statistics
Read error : 0
Skipped (treated as error) : 0
Edge jitter error (maybe fixed) : 0
Atom jitter error (maybe fixed) : 0
Drift error (maybe fixed) : 0
Dropped bytes error (maybe fixed) : 0
Duplicated bytes error (maybe fixed) : 0
Inconsistency in error sectors : 0
Track 10
Filename : /Users/olegbelov/Downloads/Oregon - Our First Record (1970)/10 - Jade vision.flac
Track gain : 2.72 dB
Peak : 0.978058
CRC32 hash (test run) : 93F08A18
CRC32 hash : 93F08A18
CRC32 hash (skip zero) : 30EF4870
AccurateRip signature : 7824AD6C
->Accurately ripped! (confidence 1)
Statistics
Read error : 0
Skipped (treated as error) : 0
Edge jitter error (maybe fixed) : 0
Atom jitter error (maybe fixed) : 0
Drift error (maybe fixed) : 0
Dropped bytes error (maybe fixed) : 0
Duplicated bytes error (maybe fixed) : 0
Inconsistency in error sectors : 0
Track 11
Filename : /Users/olegbelov/Downloads/Oregon - Our First Record (1970)/11 - Molecular.flac
Track gain : -2.59 dB
Peak : 0.978119
CRC32 hash (test run) : 265610FB
CRC32 hash : 265610FB
CRC32 hash (skip zero) : 0BEEA504
AccurateRip signature : F75AE8A2
->Accurately ripped! (confidence 1)
Statistics
Read error : 0
Skipped (treated as error) : 0
Edge jitter error (maybe fixed) : 0
Atom jitter error (maybe fixed) : 0
Drift error (maybe fixed) : 0
Dropped bytes error (maybe fixed) : 0
Duplicated bytes error (maybe fixed) : 0
Inconsistency in error sectors : 0
Track 12
Filename : /Users/olegbelov/Downloads/Oregon - Our First Record (1970)/12 - Margueritte.flac
Track gain : -2.26 dB
Peak : 0.971924
CRC32 hash (test run) : EA49641B
CRC32 hash : EA49641B
CRC32 hash (skip zero) : 38001953
AccurateRip signature : 9C3D4A17
->Accurately ripped! (confidence 1)
Statistics
Read error : 0
Skipped (treated as error) : 0
Edge jitter error (maybe fixed) : 0
Atom jitter error (maybe fixed) : 1
Drift error (maybe fixed) : 0
Dropped bytes error (maybe fixed) : 0
Duplicated bytes error (maybe fixed) : 0
Inconsistency in error sectors : 0
Track 13
Filename : /Users/olegbelov/Downloads/Oregon - Our First Record (1970)/13 - Entrez Devotée Compagne.flac
Track gain : 0.94 dB
Peak : 0.493408
CRC32 hash (test run) : 36C12B90
CRC32 hash : EE00963A
->Rip may not be accurate.
CRC32 hash (skip zero) : 497986C1
AccurateRip signature : FF7945AD
->Accurately ripped! (confidence 1)
Statistics
Read error : 0
Skipped (treated as error) : 0
Edge jitter error (maybe fixed) : 0
Atom jitter error (maybe fixed) : 0
Drift error (maybe fixed) : 0
Dropped bytes error (maybe fixed) : 0
Duplicated bytes error (maybe fixed) : 0
Inconsistency in error sectors : 0
Some inconsistencies found
End of status report
 
Содержание индексной карты (.CUE)
TITLE "Our First Record"
PERFORMER "Oregon"
REM GENRE "Jazz"
REM DATE "1970"
REM DISCID BD0B330D
REM REPLAYGAIN_ALBUM_GAIN -1.46 dB
REM REPLAYGAIN_ALBUM_PEAK 0.980164
FILE "01 - Canyon Song.flac" WAVE
TRACK 01 AUDIO
TITLE "Canyon Song"
REM REPLAYGAIN_TRACK_GAIN -0.87 dB
REM REPLAYGAIN_TRACK_PEAK 0.979614
INDEX 01 00:00:00
FILE "02 - Full Circle.flac" WAVE
TRACK 02 AUDIO
TITLE "Full Circle"
REM REPLAYGAIN_TRACK_GAIN 2.11 dB
REM REPLAYGAIN_TRACK_PEAK 0.976929
INDEX 01 00:00:00
FILE "03 - Japan - Charles St. Melancholy.flac" WAVE
TRACK 03 AUDIO
TITLE "Japan - Charles St. Melancholy"
REM REPLAYGAIN_TRACK_GAIN 0.98 dB
REM REPLAYGAIN_TRACK_PEAK 0.838501
INDEX 01 00:00:00
FILE "04 - Collin's Delite.flac" WAVE
TRACK 04 AUDIO
TITLE "Collin's Delite"
REM REPLAYGAIN_TRACK_GAIN -0.58 dB
REM REPLAYGAIN_TRACK_PEAK 0.972870
INDEX 01 00:00:00
FILE "05 - Cry of the Peacock- Coral.flac" WAVE
TRACK 05 AUDIO
TITLE "Cry of the Peacock- Coral"
REM REPLAYGAIN_TRACK_GAIN -0.58 dB
REM REPLAYGAIN_TRACK_PEAK 0.976746
INDEX 01 00:00:00
FILE "06 - Mary's New Bloom.flac" WAVE
TRACK 06 AUDIO
TITLE "Mary's New Bloom"
REM REPLAYGAIN_TRACK_GAIN 1.64 dB
REM REPLAYGAIN_TRACK_PEAK 0.852051
INDEX 01 00:00:00
FILE "07 - Aheer.flac" WAVE
TRACK 07 AUDIO
TITLE "Aheer"
REM REPLAYGAIN_TRACK_GAIN -1.04 dB
REM REPLAYGAIN_TRACK_PEAK 0.979645
INDEX 01 00:00:00
FILE "08 - Recuerdos.flac" WAVE
TRACK 08 AUDIO
TITLE "Recuerdos"
REM REPLAYGAIN_TRACK_GAIN -5.56 dB
REM REPLAYGAIN_TRACK_PEAK 0.980164
INDEX 01 00:00:00
FILE "09 - L'Histoire du Farm Suite.flac" WAVE
TRACK 09 AUDIO
TITLE "L'Histoire du Farm Suite"
REM REPLAYGAIN_TRACK_GAIN -0.24 dB
REM REPLAYGAIN_TRACK_PEAK 0.979340
INDEX 01 00:00:00
FILE "10 - Jade vision.flac" WAVE
TRACK 10 AUDIO
TITLE "Jade vision"
REM REPLAYGAIN_TRACK_GAIN 2.72 dB
REM REPLAYGAIN_TRACK_PEAK 0.978058
INDEX 01 00:00:00
FILE "11 - Molecular.flac" WAVE
TRACK 11 AUDIO
TITLE "Molecular"
REM REPLAYGAIN_TRACK_GAIN -2.59 dB
REM REPLAYGAIN_TRACK_PEAK 0.978119
INDEX 01 00:00:00
FILE "12 - Margueritte.flac" WAVE
TRACK 12 AUDIO
TITLE "Margueritte"
REM REPLAYGAIN_TRACK_GAIN -2.26 dB
REM REPLAYGAIN_TRACK_PEAK 0.971924
INDEX 01 00:00:00
FILE "13 - Entrez Devotée Compagne.flac" WAVE
TRACK 13 AUDIO
TITLE "Entrez Devotée Compagne"
REM REPLAYGAIN_TRACK_GAIN 0.94 dB
REM REPLAYGAIN_TRACK_PEAK 0.493408
INDEX 01 00:00:00
 
Состав
Ralph Towner - classical & 12-string guitars, piano, mellophone
Paul McCandless - oboe, english horn
Glen Moore - bass, flute
Collin Walcott - tabla, sitar, 12-string guitar, percussion, esraj
22:28
304
Нет комментариев. Ваш будет первым!