Поиск

(World Jazz, Accordion, Tango) [CD] Richard Galliano - Astor Piazzolla: Ballet Tango - 1992, FLAC (tracks+.cue), lossless

(World Jazz, Accordion, Tango) [CD] Richard Galliano - Astor Piazzolla: Ballet Tango - 1992, FLAC (tracks+.cue), lossless
Треклист:
Richard Galliano / Astor Piazzolla: Ballet Tango
Жанр: World Jazz, Accordion, Tango
Носитель: CD
Страна-производитель диска (релиза): РФ
Год издания: 1992
Издатель (лейбл): M&A Group
Страна исполнителя (группы): France
Аудиокодек: FLAC (*.flac)
Тип рипа: tracks+.cue
Битрейт аудио: lossless
Продолжительность: 44:34
Источник (релизер): Jahrastafara
Наличие сканов в содержимом раздачи: да
Треклист:
1 Adiós Nonino 5:13
2 Oblivión 3:34
3 Chiquilin De Bachin 3:05
4 Pedro Y Pedro 5:14
Ballet Tango (12:05)
5.1 Introduction
5.2 La Cité
5.3 L'Amour
5.4 Cabaret
5.5 Solitude
5.6 Final
5.7 Grand Final
Trois Préludes
6 Leijia's Game 3:48
7 Flora's Game 7:47
8 Sunny's Game 3:18
 
Лог создания рипа
Exact Audio Copy V1.1 from 23. June 2015
Отчёт EAC об извлечении, выполненном 10. февраля 2018, 0:56
Richard Galliano / Astor Piazzolla - Ballet Tango
Дисковод: HL-DT-STDVDRAM GP30NB40 Adapter: 1 ID: 0
Режим чтения : Достоверность
Использование точного потока : Да
Отключение кэша аудио : Да
Использование указателей C2 : Нет
Коррекция смещения при чтении : 6
Способность читать области Lead-in и Lead-out : Нет
Заполнение пропущенных сэмплов тишиной : Да
Удаление блоков с тишиной в начале и конце : Нет
При вычислениях CRC использовались нулевые сэмплы : Да
Интерфейс : Встроенный Win32-интерфейс для Win NT/2000
Обработка зазоров : Добавлено к предыдущему треку
Выходной формат : Пользовательский кодировщик
Выбранный битрейт : 768 kBit/s
Качество : Высокий
Добавление ID3-тега : Нет
Утилита сжатия : C:\Program Files (x86)\Exact Audio Copy\FLAC\FLAC.EXE
Дополнительные параметры : -6 -V -T "ARTIST=%artist%" -T "TITLE=%title%" -T "ALBUM=%albumtitle%" -T "DATE=%year%" -T "TRACKNUMBER=%tracknr%" -T "GENRE=%genre%" -T "COMMENT=%comment%" -T "BAND=%albuminterpret%" -T "ALBUMARTIST=%albuminterpret%" -T "COMPOSER=%composer%" %haslyrics%--tag-from-file=LYRICS="%lyricsfile%"%haslyrics% -T "DISCNUMBER=%cdnumber%" -T "TOTALDISCS=%totalcds%" -T "TOTALTRACKS=%numtracks%" %hascover%--picture="%coverfile%"%hascover% %source% -o %dest%
TOC извлечённого CD
Трек | Старт | Длительность | Начальный сектор | Конечный сектор
---------------------------------------------------------------------
1 | 0:00.00 | 5:17.44 | 0 | 23818
2 | 5:17.44 | 3:39.00 | 23819 | 40243
3 | 8:56.44 | 3:09.67 | 40244 | 54485
4 | 12:06.36 | 5:17.62 | 54486 | 78322
5 | 17:24.23 | 12:08.59 | 78323 | 132981
6 | 29:33.07 | 3:51.55 | 132982 | 150361
7 | 33:24.62 | 7:50.49 | 150362 | 185660
8 | 41:15.36 | 3:18.55 | 185661 | 200565
Трек 1
Имя файла D:\CONVERSION\01. Richard Galliano - Adios Nonino.wav
Длина предзазора 0:00:02.00
Пиковый уровень 77.7 %
Скорость извлечения 2.9 X
Качество трека 100.0 %
CRC копии 33F55079
Точное извлечение (достоверность 5) [A6AC4E17] (AR v1)
Копирование... OK
Трек 2
Имя файла D:\CONVERSION\02. Richard Galliano - Oblivion.wav
Длина предзазора 0:00:01.74
Пиковый уровень 62.9 %
Скорость извлечения 1.3 X
Качество трека 99.7 %
CRC копии B65160AC
Точность не определена (достоверность 5) [1F350824], AccurateRip вернул [8764CDB6] (AR v2)
Копирование... OK
Трек 3
Имя файла D:\CONVERSION\03. Richard Galliano - Chiquilin de Bachin.wav
Длина предзазора 0:00:01.74
Пиковый уровень 68.7 %
Скорость извлечения 2.8 X
Качество трека 99.9 %
CRC копии B5A9BD96
Точное извлечение (достоверность 5) [80DF1D19] (AR v1)
Копирование... OK
Трек 4
Имя файла D:\CONVERSION\04. Richard Galliano - Pedro y pedro.wav
Длина предзазора 0:00:01.74
Пиковый уровень 85.6 %
Скорость извлечения 3.9 X
Качество трека 100.0 %
CRC копии 85A2516B
Точное извлечение (достоверность 5) [FA1AF0A9] (AR v1)
Копирование... OK
Трек 5
Имя файла D:\CONVERSION\05. Richard Galliano - Ballet Tango.wav
Длина предзазора 0:00:01.74
Подозрительная позиция 0:01:59
Подозрительная позиция 0:02:02
Пиковый уровень 94.0 %
Скорость извлечения 1.6 X
Качество трека 99.7 %
CRC копии 960FC544
Точность не определена (достоверность 5) [FF442ABB], AccurateRip вернул [D07FAFF2] (AR v2)
Копирование завершено
Трек 6
Имя файла D:\CONVERSION\06. Richard Galliano - Leijia`s Game.wav
Длина предзазора 0:00:01.74
Пиковый уровень 57.1 %
Скорость извлечения 1.8 X
Качество трека 99.9 %
CRC копии 40D7FD18
Точное извлечение (достоверность 5) [BA36A836] (AR v1)
Копирование... OK
Трек 7
Имя файла D:\CONVERSION\07. Richard Galliano - Flora`s Game.wav
Длина предзазора 0:00:01.74
Пиковый уровень 60.2 %
Скорость извлечения 2.3 X
Качество трека 100.0 %
CRC копии C701FFD0
Точное извлечение (достоверность 5) [8D968AEA] (AR v1)
Копирование... OK
Трек 8
Имя файла D:\CONVERSION\08. Richard Galliano - Sunny`s Game.wav
Длина предзазора 0:00:01.74
Пиковый уровень 59.0 %
Скорость извлечения 4.3 X
Качество трека 100.0 %
CRC копии 0A9A28F3
Точное извлечение (достоверность 5) [07340510] (AR v1)
Копирование... OK
6 трек(и) скопированы точно
2 трек(и) не удалось проверить на точность
Некоторые треки не прошли проверку на точность
Были ошибки
Конец отчёта
---- CUETools DB Plugin V2.1.6
[CTDB TOCID: LSvjHKkVq3xqplAspMDzts4KthQ-] found
Submit result: LSvjHKkVq3xqplAspMDzts4KthQ- has been submitted
Track | CTDB Status
1 | (2/2) Accurately ripped
2 | (2/2) Differs in 626 samples @02:42:58,02:43:06,02:45:51-02:45:52,02:45:62-02:45:63,02:45:74-02:46:00,02:46:10-02:46:11,02:46:22-02:46:23,02:46:56-02:46:57,02:47:05,02:47:51,02:47:62-02:47:63
3 | (2/2) Accurately ripped
4 | (2/2) Accurately ripped
5 | (2/2) Differs in 7106 samples @01:56:32-01:56:33,01:56:60-01:56:61,01:56:73-01:56:74,01:57:12-01:57:13,01:57:26-01:57:27,01:57:40-01:57:41,01:57:54-01:57:55,01:57:68-01:57:69,01:58:07-01:58:08,01:58:21-01:58:22,01:58:35-01:58:36,01:58:49,01:58:62-01:58:63,01:59:01-01:59:02,01:59:43-01:59:44,01:59:57-01:59:58,01:59:71-01:59:72,02:00:10-02:00:11,02:00:24,02:00:37-02:00:38,02:00:51-02:00:52,02:00:65-02:00:66,02:01:04-02:01:05,02:01:18-02:01:19,02:01:32-02:01:33,02:01:46-02:01:47,02:01:60-02:01:61,02:01:74-02:02:00,02:02:13,02:02:26-02:02:27,02:02:40-02:02:41,02:02:54-02:02:55,02:02:68-02:02:69,02:03:07-02:03:08,02:03:21-02:03:22,02:03:35-02:03:36,02:03:49-02:03:50,02:03:63-02:03:64,02:04:02,02:04:15-02:04:16,02:04:29-02:04:30,02:04:43-02:04:44,02:04:57-02:04:58,02:04:71-02:04:72,02:05:10-02:05:11,02:05:24-02:05:25,02:05:38-02:05:39,02:05:52-02:05:53,02:05:66-02:05:67,02:06:05-02:06:06,02:06:19,02:06:32-02:06:33,02:06:46-02:06:47,02:06:60-02:06:61,02:06:74-02:07:00,02:07:13-02:07:14,02:07:27-02:07:28,02:07:41-02:07:42,02:07:55-02:07:56,02:35:64-02:35:65,02:36:59-02:36:60,02:37:12-02:37:13,02:37:40-02:37:41,02:38:21-02:38:22,02:38:49-02:38:50,02:38:63-02:38:64,02:39:02-02:39:03,02:39:16-02:39:17,02:39:30-02:39:31,02:39:44-02:39:45,02:39:58-02:39:59,02:39:72-02:39:73,02:40:11-02:40:12,02:40:25-02:40:26,02:40:39-02:40:40,02:40:54,02:40:67-02:40:68,02:41:07,02:50:62,02:51:15,02:51:29,02:51:43,02:51:57,02:51:71-02:51:72,02:52:10-02:52:11,02:52:24-02:52:25,02:52:38-02:52:39,02:52:52-02:52:53,02:52:66-02:52:67,02:53:05-02:53:06
6 | (2/2) Accurately ripped
7 | (2/2) Accurately ripped
8 | (2/2) Accurately ripped
If you are sure that your rip contains errors, you can use CUETools to repair it.
==== Контрольная сумма отчёта 86FA51137CCB04C8C8B329754BB4385A5B9D13D2AE81B2C1F2BEE8C53C699B3A ====
 
Содержание индексной карты (.CUE)
REM GENRE Tango
REM DATE 1992
REM DISCID 6B0A7208
REM COMMENT "ExactAudioCopy v1.1"
PERFORMER "Richard Galliano"
TITLE "Astor Piazzolla - Ballet Tango"
FILE "01. Richard Galliano - Adios Nonino.wav" WAVE
TRACK 01 AUDIO
TITLE "Adios Nonino"
PERFORMER "Richard Galliano"
INDEX 01 00:00:00
TRACK 02 AUDIO
TITLE "Oblivion"
PERFORMER "Richard Galliano"
INDEX 00 05:15:45
FILE "02. Richard Galliano - Oblivion.wav" WAVE
INDEX 01 00:00:00
TRACK 03 AUDIO
TITLE "Chiquilin de Bachin"
PERFORMER "Richard Galliano"
INDEX 00 03:37:01
FILE "03. Richard Galliano - Chiquilin de Bachin.wav" WAVE
INDEX 01 00:00:00
TRACK 04 AUDIO
TITLE "Pedro y pedro"
PERFORMER "Richard Galliano"
INDEX 00 03:07:68
FILE "04. Richard Galliano - Pedro y pedro.wav" WAVE
INDEX 01 00:00:00
TRACK 05 AUDIO
TITLE "Ballet Tango"
PERFORMER "Richard Galliano"
INDEX 00 05:15:63
FILE "05. Richard Galliano - Ballet Tango.wav" WAVE
INDEX 01 00:00:00
TRACK 06 AUDIO
TITLE "Leijia`s Game"
PERFORMER "Richard Galliano"
INDEX 00 12:06:60
FILE "06. Richard Galliano - Leijia`s Game.wav" WAVE
INDEX 01 00:00:00
TRACK 07 AUDIO
TITLE "Flora`s Game"
PERFORMER "Richard Galliano"
INDEX 00 03:49:56
FILE "07. Richard Galliano - Flora`s Game.wav" WAVE
INDEX 01 00:00:00
TRACK 08 AUDIO
TITLE "Sunny`s Game"
PERFORMER "Richard Galliano"
INDEX 00 07:48:50
FILE "08. Richard Galliano - Sunny`s Game.wav" WAVE
INDEX 01 00:00:00
02:51
565
Нет комментариев. Ваш будет первым!