Поиск

(World Fusion) Yeahwon Shin - Lua Ya - 2013 (ECM 2337), FLAC (tracks+.cue), lossless

(World Fusion) Yeahwon Shin - Lua Ya - 2013 (ECM 2337), FLAC (tracks+.cue), lossless
Треклист:
Yeahwon Shin - Lua Ya
Жанр: World Fusion
Страна-производитель диска: Германия
Год издания: 2013
Издатель (лейбл): ECM Records
Номер по каталогу: ECM 2337 (3744030)
Страна: Южная Корея
Аудиокодек: FLAC (*.flac)
Тип рипа: tracks+.cue
Битрейт аудио: lossless
Продолжительность: 40:28
Источник (релизер): jlgt
Наличие сканов в содержимом раздачи: да
Треклист:
01. Lullaby (Shin-Parks-Curto) - 2:36
02. Moving Clouds (Keun-Yin) - 3:33
03. Island Child (Hyun-Ryeol) - 4:14
04. Mysteries (Shin-Parks) - 3:13
05. The Moonwatcher and the Child (Jung-Pa) - 4:15
06. The Orchard Road (Mok-Sun) - 2:20
07. Remembrance (Aeh-Jun) - 1:26
08. Beads of Rain (Soon-Won) - 3:59
09. A Morning Song (Shin-Parks) - 3:08
10. Travel Blue (Shin-Parks) - 3:13
11. Beads of Rain, var. (Soon-Won) - 3:18
12. The Orchard Road, var. (Mok-Sun) - 2:44
13. Sunrise (Shin-Parks) - 2:29
Состав:
Yeahwon Shin - voice
Aaron Parks - piano
Rob Curto - accordion
Recorded at Mechanics Hall, Worcester, MA in May 2012.
 
Лог создания рипа
Exact Audio Copy V1.0 beta 3 from 29. August 2011
EAC extraction logfile from 6. October 2013, 20:48
Yeahwon Shin / Lua Ya [ECM 2337]
Used drive : PLEXTOR DVDR PX-L890SA Adapter: 2 ID: 1
Read mode : Secure
Utilize accurate stream : Yes
Defeat audio cache : Yes
Make use of C2 pointers : No
Read offset correction : 6
Overread into Lead-In and Lead-Out : No
Fill up missing offset samples with silence : Yes
Delete leading and trailing silent blocks : No
Null samples used in CRC calculations : Yes
Used interface : Native Win32 interface for Win NT & 2000
Gap handling : Appended to previous track
Used output format : User Defined Encoder
Selected bitrate : 768 kBit/s
Quality : High
Add ID3 tag : No
Command line compressor : C:\Program Files (x86)\Exact Audio Copy\FLAC\FLAC.EXE
Additional command line options : -8 -V -T "ARTIST=%artist%" -T "TITLE=%title%" -T "ALBUM=%albumtitle%" -T "DATE=%year%" -T "TRACKNUMBER=%tracknr%" -T "TOTALTRACKS=%numtracks%" -T "GENRE=%genre%" -T "ALBUMARTIST=%albumartist%" -T "ALBUM ARTIST=%albumartist%" -T "COMMENT=EAC Secure Mode, Test & Copy, AccurateRip, FLAC -8" %source%
TOC of the extracted CD
Track | Start | Length | Start sector | End sector
---------------------------------------------------------
1 | 0:00.00 | 2:36.34 | 0 | 11733
2 | 2:36.34 | 3:32.57 | 11734 | 27690
3 | 6:09.16 | 4:14.10 | 27691 | 46750
4 | 10:23.26 | 3:13.03 | 46751 | 61228
5 | 13:36.29 | 4:15.23 | 61229 | 80376
6 | 17:51.52 | 2:20.01 | 80377 | 90877
7 | 20:11.53 | 1:26.09 | 90878 | 97336
8 | 21:37.62 | 3:59.10 | 97337 | 115271
9 | 25:36.72 | 3:08.19 | 115272 | 129390
10 | 28:45.16 | 3:12.44 | 129391 | 143834
11 | 31:57.60 | 3:18.29 | 143835 | 158713
12 | 35:16.14 | 2:43.39 | 158714 | 170977
13 | 37:59.53 | 2:28.55 | 170978 | 182132
Track 1
Filename F:\Flac Rips\01 - Lullaby.wav
Pre-gap length 0:00:02.00
Peak level 59.2 %
Extraction speed 3.2 X
Track quality 100.0 %
Test CRC D7247F3A
Copy CRC D7247F3A
Accurately ripped (confidence 1) [6BF9D250] (AR v2)
Copy OK
Track 2
Filename F:\Flac Rips\02 - Moving Clouds.wav
Peak level 59.0 %
Extraction speed 3.7 X
Track quality 100.0 %
Test CRC BE37B8B6
Copy CRC BE37B8B6
Accurately ripped (confidence 1) [EAA92F0C] (AR v2)
Copy OK
Track 3
Filename F:\Flac Rips\03 - Island Child.wav
Peak level 72.6 %
Extraction speed 4.1 X
Track quality 100.0 %
Test CRC 5208D9F5
Copy CRC 5208D9F5
Accurately ripped (confidence 1) [A7758738] (AR v2)
Copy OK
Track 4
Filename F:\Flac Rips\04 - Mysteries.wav
Peak level 71.0 %
Extraction speed 4.2 X
Track quality 100.0 %
Test CRC F04091D3
Copy CRC F04091D3
Accurately ripped (confidence 1) [B49CBC88] (AR v2)
Copy OK
Track 5
Filename F:\Flac Rips\05 - The Moonwatcher And The Child.wav
Peak level 76.5 %
Extraction speed 3.8 X
Track quality 99.9 %
Test CRC 5BB67178
Copy CRC 5BB67178
Accurately ripped (confidence 1) [80346BD6] (AR v2)
Copy OK
Track 6
Filename F:\Flac Rips\06 - The Orchard Road.wav
Peak level 37.8 %
Extraction speed 4.4 X
Track quality 100.0 %
Test CRC 313F5BF4
Copy CRC 313F5BF4
Accurately ripped (confidence 1) [BF9C229A] (AR v2)
Copy OK
Track 7
Filename F:\Flac Rips\07 - Remembrance.wav
Peak level 48.7 %
Extraction speed 4.0 X
Track quality 100.0 %
Test CRC DD8D945C
Copy CRC DD8D945C
Accurately ripped (confidence 1) [30F3F765] (AR v2)
Copy OK
Track 8
Filename F:\Flac Rips\08 - Beads of Rain.wav
Peak level 61.0 %
Extraction speed 5.2 X
Track quality 100.0 %
Test CRC 42A55583
Copy CRC 42A55583
Accurately ripped (confidence 1) [498B6C36] (AR v2)
Copy OK
Track 9
Filename F:\Flac Rips\09 - A Morning Song.wav
Peak level 51.0 %
Extraction speed 4.0 X
Track quality 99.9 %
Test CRC 3F1CAE7E
Copy CRC 3F1CAE7E
Accurately ripped (confidence 1) [E1B6FFA4] (AR v2)
Copy OK
Track 10
Filename F:\Flac Rips\10 - Travel Blue.wav
Peak level 85.8 %
Extraction speed 5.5 X
Track quality 100.0 %
Test CRC 9E065F36
Copy CRC 9E065F36
Accurately ripped (confidence 1) [4C3F7AA9] (AR v2)
Copy OK
Track 11
Filename F:\Flac Rips\11 - Beads of Rain, var..wav
Peak level 51.4 %
Extraction speed 5.7 X
Track quality 100.0 %
Test CRC 7723370C
Copy CRC 7723370C
Accurately ripped (confidence 1) [BA381DBA] (AR v2)
Copy OK
Track 12
Filename F:\Flac Rips\12 - The Orchard Road, var..wav
Peak level 41.9 %
Extraction speed 5.6 X
Track quality 100.0 %
Test CRC DAD570D2
Copy CRC DAD570D2
Accurately ripped (confidence 1) [BF572B30] (AR v2)
Copy OK
Track 13
Filename F:\Flac Rips\13 - Sunrise.wav
Peak level 42.6 %
Extraction speed 4.0 X
Track quality 99.9 %
Test CRC 7E3B50FD
Copy CRC 7E3B50FD
Accurately ripped (confidence 1) [B4A4C460] (AR v2)
Copy OK
All tracks accurately ripped
No errors occurred
End of status report
==== Log checksum 1B1679D1795A3DF52AC7FB0D2C232315357838C1E1BC3BDAEBE5D37A04C25C25 ====
 
Содержание индексной карты (.CUE)
REM GENRE Jazz
REM DATE 2013
REM DISCID AF097C0D
REM COMMENT "ExactAudioCopy v1.0b3"
PERFORMER "Yeahwon Shin"
TITLE "Lua Ya"
FILE "01 - Lullaby.wav" WAVE
TRACK 01 AUDIO
TITLE "Lullaby"
PERFORMER "Yeahwon Shin"
INDEX 01 00:00:00
FILE "02 - Moving Clouds.wav" WAVE
TRACK 02 AUDIO
TITLE "Moving Clouds"
PERFORMER "Yeahwon Shin"
INDEX 01 00:00:00
FILE "03 - Island Child.wav" WAVE
TRACK 03 AUDIO
TITLE "Island Child"
PERFORMER "Yeahwon Shin"
INDEX 01 00:00:00
FILE "04 - Mysteries.wav" WAVE
TRACK 04 AUDIO
TITLE "Mysteries"
PERFORMER "Yeahwon Shin"
INDEX 01 00:00:00
FILE "05 - The Moonwatcher and the Child.wav" WAVE
TRACK 05 AUDIO
TITLE "The Moonwatcher and the Child"
PERFORMER "Yeahwon Shin"
INDEX 01 00:00:00
FILE "06 - The Orchard Road.wav" WAVE
TRACK 06 AUDIO
TITLE "The Orchard Road"
PERFORMER "Yeahwon Shin"
INDEX 01 00:00:00
FILE "07 - Remembrance.wav" WAVE
TRACK 07 AUDIO
TITLE "Remembrance"
PERFORMER "Yeahwon Shin"
INDEX 01 00:00:00
FILE "08 - Beads of Rain.wav" WAVE
TRACK 08 AUDIO
TITLE "Beads of Rain"
PERFORMER "Yeahwon Shin"
INDEX 01 00:00:00
FILE "09 - A Morning Song.wav" WAVE
TRACK 09 AUDIO
TITLE "A Morning Song"
PERFORMER "Yeahwon Shin"
INDEX 01 00:00:00
FILE "10 - Travel Blue.wav" WAVE
TRACK 10 AUDIO
TITLE "Travel Blue"
PERFORMER "Yeahwon Shin"
INDEX 01 00:00:00
FILE "11 - Beads of Rain, var..wav" WAVE
TRACK 11 AUDIO
TITLE "Beads of Rain, var."
PERFORMER "Yeahwon Shin"
INDEX 01 00:00:00
FILE "12 - The Orchard Road, var..wav" WAVE
TRACK 12 AUDIO
TITLE "The Orchard Road, var."
PERFORMER "Yeahwon Shin"
INDEX 01 00:00:00
FILE "13 - Sunrise.wav" WAVE
TRACK 13 AUDIO
TITLE "Sunrise"
PERFORMER "Yeahwon Shin"
INDEX 01 00:00:00
 
Отчет CUETools
[CUETools log; Date: 08.10.2013 23:50:35; Version: 2.1.4]
[CTDB TOCID: 4a5wW7Q6rSeDBkb_6dY5Cq9pTWI-] found.
Track | CTDB Status
1 | (2/2) Accurately ripped
2 | (2/2) Accurately ripped
3 | (2/2) Accurately ripped
4 | (2/2) Accurately ripped
5 | (2/2) Accurately ripped
6 | (2/2) Accurately ripped
7 | (2/2) Accurately ripped
8 | (2/2) Accurately ripped
9 | (2/2) Accurately ripped
10 | (2/2) Accurately ripped
11 | (2/2) Accurately ripped
12 | (2/2) Accurately ripped
13 | (2/2) Accurately ripped
[AccurateRip ID: 001415e0-00c7b2fa-af097c0d] found.
Track [ CRC | V2 ] Status
01 [7837b3e7|6bf9d250] (0+1/1) Accurately ripped
02 [cde7575a|eaa92f0c] (0+1/1) Accurately ripped
03 [a05b8764|a7758738] (0+1/1) Accurately ripped
04 [94c1f6e0|b49cbc88] (0+1/1) Accurately ripped
05 [f5e65fc0|80346bd6] (0+1/1) Accurately ripped
06 [4fc19710|bf9c229a] (0+1/1) Accurately ripped
07 [8d401870|30f3f765] (0+1/1) Accurately ripped
08 [c505790d|498b6c36] (0+1/1) Accurately ripped
09 [63d07cca|e1b6ffa4] (0+1/1) Accurately ripped
10 [a0d0337e|4c3f7aa9] (0+1/1) Accurately ripped
11 [07250583|ba381dba] (0+1/1) Accurately ripped
12 [2ac9293e|bf572b30] (0+1/1) Accurately ripped
13 [f631ff9c|b4a4c460] (0+1/1) Accurately ripped
Track Peak [ CRC32 ] [W/O NULL] [ LOG ]
-- 85,8 [52B3294B] [FFDEC5C8]
01 59,2 [D7247F3A] [1DBA1D2B] CRC32
02 59,0 [BE37B8B6] [A42143E4] CRC32
03 72,6 [5208D9F5] [3DB891D7] CRC32
04 71,0 [F04091D3] [53F894E3] CRC32
05 76,5 [5BB67178] [205FC00D] CRC32
06 37,8 [313F5BF4] [F1FAAD53] CRC32
07 48,7 [DD8D945C] [5B0B6C5B] CRC32
08 61,0 [42A55583] [6B13631E] CRC32
09 51,0 [3F1CAE7E] [914C78B8] CRC32
10 85,8 [9E065F36] [2D639757] CRC32
11 51,4 [7723370C] [485EAF1E] CRC32
12 41,9 [DAD570D2] [3DFEFBEF] CRC32
13 42,6 [7E3B50FD] [BEDB16C6] CRC32
 
Об альбоме (сборнике)
South Korean singer Yeahwon Shin’s ECM debut, “Lua ya” is a gentle album of songs and lullabies, recorded in 2012 in the spacious acoustics of Mechanics Hall, near Boston. It’s a very intuitive set, shaped by “improvising, listening to our childhood memories and letting the music flow”, as Yeahwon says. Shin and pianist Aaron Parks played together just once before the present recording, finding “an instant improvisational connection” which is further explored here. Accordionist Rob Curto shares with Yeahwon an affinity for Brazilian music and has collaborated with her previously (in contexts including her Latin Grammy-nominated album “Yeahwon” on ArtistShare). But this new disc is a project beyond the idiomatic borderlines: Korean children’s songs are amongst the inspirational sources, and jazz has influenced the phrasing and imagination of all three participants, yet “Lua ya” seems to emerge from a place of pure music and a common reservoir of feeling. Yeahwon Shin dedicates the set to mothers and children everywhere.
13:24
265
Нет комментариев. Ваш будет первым!