Поиск

(World Fusion) Trilok Gurtu - Crazy Saints - 1993, FLAC (tracks + .cue), lossless

(World Fusion) Trilok Gurtu - Crazy Saints - 1993, FLAC (tracks + .cue), lossless
Треклист:
Trilok Gurtu - Crazy Saints (1993)
Жанр: World Fusion, Jazz
Дата записи: WAITER QUINTUS AT ZTUDIO ZERKALL, GERMANY, MAY/JUNE 1993
Дата выпуска: 1993
Производитель диска: CMP CD 66
Страна исполнителя: India
Аудио кодек: FLAC
Тип рипа: (tracks + .cue)
Битрейт аудио: lossless
Включает: FLACS, LOG, CUE, TAU - 227 mb
Сканы: Все страницы, вкладыши и диск. 300dpi, png jpg
Продолжительность: 46:38
Источник: Моя коллекция
Ripped by: Musicgate
Трэклист:
1. MANINI (T. Gurtu / D. Goyone) 7:06
2. TILLANA (Traditional, arranged by D. Goyone & T. Gurtu) 4:12
3. BALLAD FOR 2 MUSICIANS (J. Zavinu) 6:08 4. THE OTHER TUNE (J. Zavinul) 7.39
5. BLESSING IN DISGUISE (T. Gurtu) 9:26
6. CRAZY SAINTS (T. Gurtu / D. Goyone) 8:19
7. NO DISCRIMINATION (T. Gurtu) 3:38
Об исполнителе:
Official Site
wikipedia.org
Drummerworld: Trilok Gurtu
E.J.N. - TRILOK GURTU
worldmusicnet.net
allmusic.com
wikipedia.org
mintakamusic.com
india-today.com
Об альбоме:
allmusic.com
Состав:
TRILOK GURTU: DRUMS, TABIA. VOICE, DOL, KANJIRA, PERCUSSION
DANIEL GOYONE: PIANO, KEYBOARDS
SHOBHA GURTU: VOICE
PAT METHENY: GUITAR, GUITAR SYNTHESIZER
JOE ZAWINUL: KEYBOARDS, PIANO
LOUIS SCLAVIS: BASS ClARINET, CLARINET, SOPRANO SAXOPHONE
ERNST REIJSEGER: CELLO
MARC BERTAUX: BASS
Мои раздачи на треккере - jazz / fusion / prog
 
Несколько слов на английском
Review by Bret Love (AMG)
Percussionist Trilok Gurtu comes from a long line of respected Indian classical musicians, but he's best known for his genre
-blending fusions of world music and jazz. Crazy Saints is one of his most complex and challenging releases to date,
enlisting the aid of jazz legends like guitarist Pat Metheny and Joe Zawinul to create a thoroughly modern sound that moves
from razor sharp ensemble work to dizzying solos. The most effective songs are those that mine Gurtu's myriad world music
influences, including "Manini" and "Blessing in Disguise," both of which are blessed with the haunting vocal ululations of
Indian music legend Shobha Gurtu, the drummer's mother. The genteel balladry of "Ballad for 2 Musicians" and the excessive
ambient noodling of "The Other Tune" may tax the patience of those with a lower tolerance for modern jazz wankery. But
ultimately songs like the title track, which marries blistering beats in quirky time signatures with heavenly vocals and
dazzling instrumental interplay, make the album a fine foray into jazz/world fusion.
 
Folder content
01 - Manini.flac
02 - Tillana.flac
03 - Ballad For 2 Musicians.flac
04 - The Other Tune.flac
05 - Blessing In Disguise.flac
06 - Crazy Saints.flac
07 - No Discrimination.flac
Artwork
Crazy Saints.log
Crazy Saints_Noncompliant.CUE
Crazy Saints_Single Wav.CUE
info.txt
tau.txt
thumb.jpg
Trilok Gurtu - Crazy Saints.m3u
Artwork\Back.png
Artwork\Disc.png
Artwork\front.jpg
Artwork\Front.png
Artwork\In.png
 
EAC log
EAC extraction logfile from 8. January 2008, 18:46 for CD
Trilok Gurtu / Crazy Saints
Used drive : PIONEER DVD-RW DVR-112D Adapter: 0 ID: 0
Read mode : Secure with NO C2, accurate stream, disable cache
Read offset correction : 48
Overread into Lead-In and Lead-Out : No
Used output format : C:\Program Files\FLAC\flac.exe (User Defined Encoder)
320 kBit/s
Additional command line options : -8 -V -T "ARTIST=%a" -T "TITLE=%t" -T "ALBUM=%g" -T "DATE=%y" -T
"TRACKNUMBER=%n" -T "GENRE=%m" -T "COMMENT=EAC FLAC -8" %s
Other options :
Fill up missing offset samples with silence : Yes
Delete leading and trailing silent blocks : No
Installed external ASPI interface
Track 1
Filename D:\music\rip\Trilok Gurtu - Crazy Saints (1993) [FLAC]\01 - Manini.wav
Pre-gap length 0:00:02.00
Peak level 98.6 %
Track quality 100.0 %
Test CRC 4FC5CD44
Copy CRC 4FC5CD44
Copy OK
Track 2
Filename D:\music\rip\Trilok Gurtu - Crazy Saints (1993) [FLAC]\02 - Tillana.wav
Pre-gap length 0:00:00.42
Peak level 99.5 %
Track quality 100.0 %
Test CRC 4CC6E373
Copy CRC 4CC6E373
Copy OK
Track 3
Filename D:\music\rip\Trilok Gurtu - Crazy Saints (1993) [FLAC]\03 - Ballad For 2 Musicians.wav
Pre-gap length 0:00:00.60
Peak level 91.0 %
Track quality 99.9 %
Test CRC 03FBEE2F
Copy CRC 03FBEE2F
Copy OK
Track 4
Filename D:\music\rip\Trilok Gurtu - Crazy Saints (1993) [FLAC]\04 - The Other Tune.wav
Pre-gap length 0:00:01.16
Peak level 99.6 %
Track quality 99.9 %
Test CRC 207297E7
Copy CRC 207297E7
Copy OK
Track 5
Filename D:\music\rip\Trilok Gurtu - Crazy Saints (1993) [FLAC]\05 - Blessing In Disguise.wav
Pre-gap length 0:00:02.10
Peak level 99.2 %
Track quality 100.0 %
Test CRC 55C4359E
Copy CRC 55C4359E
Copy OK
Track 6
Filename D:\music\rip\Trilok Gurtu - Crazy Saints (1993) [FLAC]\06 - Crazy Saints.wav
Pre-gap length 0:00:00.22
Peak level 99.8 %
Track quality 100.0 %
Test CRC 234052D3
Copy CRC 234052D3
Copy OK
Track 7
Filename D:\music\rip\Trilok Gurtu - Crazy Saints (1993) [FLAC]\07 - No Discrimination.wav
Pre-gap length 0:00:01.22
Peak level 99.0 %
Track quality 100.0 %
Test CRC 2B7323B4
Copy CRC 2B7323B4
Copy OK
No errors occured
End of status report
 
TAU log
3590276433 75280508 01 - Manini.wav
184179037 44664524 02 - Tillana.wav
4177657637 65021084 03 - Ballad For 2 Musicians.wav
541394869 81186380 04 - The Other Tune.wav
1501689155 98882828 05 - Blessing In Disguise.wav
180650529 91469324 06 - Crazy Saints.wav
615519820 37650860 07 - No Discrimination.wav
auCDtect: CD records authenticity detector, version 0.8.2
Copyright (c) 2004 Oleg Berngardt. All rights reserved.
Copyright (c) 2004 Alexander Djourik. All rights reserved.
------------------------------------------------------------
Processing file: [01 - Manini.wav]
------------------------------------------------------------
This track looks like CDDA with probability 100%
------------------------------------------------------------
Processing file: [02 - Tillana.wav]
------------------------------------------------------------
This track looks like CDDA with probability 100%
------------------------------------------------------------
Processing file: [03 - Ballad For 2 Musicians.wav]
------------------------------------------------------------
This track looks like CDDA with probability 100%
------------------------------------------------------------
Processing file: [04 - The Other Tune.wav]
------------------------------------------------------------
This track looks like CDDA with probability 100%
------------------------------------------------------------
Processing file: [05 - Blessing In Disguise.wav]
------------------------------------------------------------
This track looks like CDDA with probability 100%
------------------------------------------------------------
Processing file: [06 - Crazy Saints.wav]
------------------------------------------------------------
This track looks like CDDA with probability 100%
------------------------------------------------------------
Processing file: [07 - No Discrimination.wav]
------------------------------------------------------------
This track looks like CDDA with probability 100%
------------------------------------------------------------
Final Conclusion:
------------------------------------------------------------
These tracks looks like CDDA with probability 100%
Я не сидирую все свои раздачи подолгу, только новые (до 3х первых сидов)
Если через месяц вы нашли тут этот альбом без сидов - шлите ПМ, я вернусь
02:41
379
Нет комментариев. Ваш будет первым!