Поиск

(World Fusion) Toufic Farroukh - Drab Zeen - 2002, FLAC (image+.cue), lossless

(World Fusion) Toufic Farroukh - Drab Zeen - 2002, FLAC (image+.cue), lossless
Треклист:
•Toufic Farroukh - Drab Zeen•
Жанр: World Fusion
Год издания: 2002
Издатель (лейбл): Le Chant Du Monde
Аудиокодек: FLAC (*.flac)
Тип рипа: image+.cue
Битрейт аудио: lossless
Продолжительность: 00:53:09
Источник (релизер): SKA
Наличие сканов в содержимом раздачи: нет
Треклист:
01.Fusic {06:20}
02.Lili s'en Fout {05:52}
03.The Pain in Spain Stays Mainly in the Brain {04:35}
04.Land of Milk and Money {05:16}
05.Callipyge (intro) {00:58}
06.Callipyge {02:22}
07.Kaf Skoon (intro) {01:38}
08.Kaf Skoon {04:38}
09.L'homme Qui a Perdu Son Ombre {04:56}
10.A Night in Damascus {04:10}
11.Bilan Actuel {03:52}
12.Blues for Ali {04:31}
13.Petites Mains et Longues Jambes... {03:55}
Personnel: Toufic Farroukh (vocals, bouzouki, soprano saxophone, tenor saxophone, piano, synthesizer, bendir, percussion, keyboard programming, drum programming); Tania Saleh, Yasmine Hamdan (vocals); Nabil Khalidi (banjo, oud); Charbel Rouhana (oud); Kiya Tabassian (setar); Bassam Saba (nay); Gueorgui Kornazov (trombone); Leandro Aconcha (piano, organ, synthesizer).
 
Лог создания рипа
Exact Audio Copy V0.99 prebeta 5 from 4. May 2009
EAC extraction logfile from 17. January 2011, 17:59
Toufic Farroukh / Drab Zeen
Used drive : HL-DT-STDVDRAM GSA-H10A Adapter: 0 ID: 0
Read mode : Secure
Utilize accurate stream : Yes
Defeat audio cache : Yes
Make use of C2 pointers : No
Read offset correction : 667
Overread into Lead-In and Lead-Out : No
Fill up missing offset samples with silence : Yes
Delete leading and trailing silent blocks : No
Null samples used in CRC calculations : Yes
Used interface : Native Win32 interface for Win NT & 2000
Used output format : User Defined Encoder
Selected bitrate : 128 kBit/s
Quality : High
Add ID3 tag : No
Command line compressor : C:\Program Files (x86)\Exact Audio Copy\FLAC\FLAC.EXE
Additional command line options : -8 -V %s
TOC of the extracted CD
Track | Start | Length | Start sector | End sector
---------------------------------------------------------
1 | 0:00.00 | 6:20.22 | 0 | 28521
2 | 6:20.22 | 5:52.25 | 28522 | 54946
3 | 12:12.47 | 4:35.66 | 54947 | 75637
4 | 16:48.38 | 5:16.49 | 75638 | 99386
5 | 22:05.12 | 0:58.62 | 99387 | 103798
6 | 23:03.74 | 2:22.23 | 103799 | 114471
7 | 25:26.22 | 1:38.03 | 114472 | 121824
8 | 27:04.25 | 4:38.25 | 121825 | 142699
9 | 31:42.50 | 4:56.72 | 142700 | 164971
10 | 36:39.47 | 4:10.25 | 164972 | 183746
11 | 40:49.72 | 3:52.16 | 183747 | 201162
12 | 44:42.13 | 4:31.20 | 201163 | 221507
13 | 49:13.33 | 3:55.71 | 221508 | 239203
Range status and errors
Selected range
Filename C:\Users\blasto\Documents\Toufic Farroukh - Drab Zeen.wav
Peak level 100.0 %
Range quality 100.0 %
Test CRC 477DA72C
Copy CRC 477DA72C
Copy OK
No errors occurred
AccurateRip summary
Track 1 accurately ripped (confidence 10) [A73C2221]
Track 2 accurately ripped (confidence 10) [8511899A]
Track 3 accurately ripped (confidence 10) [2DC9A3D2]
Track 4 accurately ripped (confidence 10) [9103C931]
Track 5 accurately ripped (confidence 10) [CD5BE219]
Track 6 accurately ripped (confidence 10) [C1AD4B26]
Track 7 accurately ripped (confidence 10) [62DE90EC]
Track 8 accurately ripped (confidence 10) [E529BE34]
Track 9 accurately ripped (confidence 10) [861529F1]
Track 10 accurately ripped (confidence 10) [1160556D]
Track 11 accurately ripped (confidence 10) [2234AD58]
Track 12 accurately ripped (confidence 10) [32B718E0]
Track 13 accurately ripped (confidence 10) [C75A8853]
All tracks accurately ripped
End of status report
 
Содержание индексной карты (.CUE)
REM GENRE Jazz
REM DATE 2002
REM DISCID A40C750D
REM COMMENT "ExactAudioCopy v0.99pb5"
PERFORMER "Toufic Farroukh"
TITLE "Drab Zeen"
FILE "Toufic Farroukh - Drab Zeen.flac" WAVE
TRACK 01 AUDIO
TITLE "Fusic"
PERFORMER "Toufic Farroukh"
INDEX 01 00:00:00
TRACK 02 AUDIO
TITLE "Lili s'en Fout"
PERFORMER "Toufic Farroukh"
INDEX 00 06:17:37
INDEX 01 06:20:22
TRACK 03 AUDIO
TITLE "The Pain in Spain Stays Mainly in the Brain"
PERFORMER "Toufic Farroukh"
INDEX 00 12:09:49
INDEX 01 12:12:47
TRACK 04 AUDIO
TITLE "Land of Milk and Money"
PERFORMER "Toufic Farroukh"
INDEX 00 16:46:38
INDEX 01 16:48:38
TRACK 05 AUDIO
TITLE "Callipyge (intro)"
PERFORMER "Toufic Farroukh"
INDEX 00 22:03:12
INDEX 01 22:05:12
TRACK 06 AUDIO
TITLE "Callipyge"
PERFORMER "Toufic Farroukh"
INDEX 01 23:03:74
TRACK 07 AUDIO
TITLE "Kaf Skoon (intro)"
PERFORMER "Toufic Farroukh"
INDEX 00 25:24:22
INDEX 01 25:26:22
TRACK 08 AUDIO
TITLE "Kaf Skoon"
PERFORMER "Toufic Farroukh"
INDEX 01 27:04:25
TRACK 09 AUDIO
TITLE "L'homme Qui a Perdu Son Ombre"
PERFORMER "Toufic Farroukh"
INDEX 00 31:40:51
INDEX 01 31:42:50
TRACK 10 AUDIO
TITLE "A Night in Damascus"
PERFORMER "Toufic Farroukh"
INDEX 00 36:38:38
INDEX 01 36:39:47
TRACK 11 AUDIO
TITLE "Bilan Actuel"
PERFORMER "Toufic Farroukh"
INDEX 00 40:47:72
INDEX 01 40:49:72
TRACK 12 AUDIO
TITLE "Blues for Ali"
PERFORMER "Toufic Farroukh"
INDEX 00 44:39:49
INDEX 01 44:42:13
TRACK 13 AUDIO
TITLE "Petites Mains et Longues Jambes..."
PERFORMER "Toufic Farroukh"
INDEX 00 49:11:34
INDEX 01 49:13:33
04:51
235
Нет комментариев. Ваш будет первым!