Поиск

(World Fusion, Smooth Jazz) Rudi Berger - In Search of Harmony - 2010, FLAC (image+.cue), lossless

(World Fusion, Smooth Jazz) Rudi Berger - In Search of Harmony - 2010, FLAC (image+.cue), lossless
Треклист:
Rudi Berger - In Search of Harmony
Жанр: World Fusion, Smooth Jazz
Страна-производитель диска: Austria
Год издания: 2010
Страна: Austria
Аудиокодек: FLAC (*.flac)
Тип рипа: image+.cue
Битрейт аудио: lossless
Продолжительность: 41:22
Источник (релизер): собственный рип
Наличие сканов в содержимом раздачи: да
Треклист:
1. Waltz For Veronika
2. Short Notice
3. So Far You See
4. I Remember Bela
5. Harlem - Niteroi Suite
6. Back To Belo
7. This Is For Love
8. Gerry's Mood
 
Лог создания рипа
Exact Audio Copy V1.0 beta 3 from 29. August 2011
Отчёт EAC об извлечении, выполненном 30. сентября 2012, 22:42
Rudi Berger / In Search of Harmony
Дисковод: HL-DT-STDVDRAM GH22NS70 Adapter: 1 ID: 0
Режим чтения : Достоверность
Использование точного потока : Да
Отключение кэша аудио : Да
Использование указателей C2 : Нет
Коррекция смещения при чтении : 667
Способность читать области Lead-in и Lead-out : Нет
Заполнение пропущенных сэмплов тишиной : Да
Удаление блоков с тишиной в начале и конце : Нет
При вычислениях CRC использовались нулевые сэмплы : Да
Интерфейс : Встроенный Win32-интерфейс для Win NT/2000
Выходной формат : Пользовательский кодировщик
Выбранный битрейт : 128 kBit/s
Качество : Высокий
Добавление ID3-тега : Нет
Утилита сжатия : C:\Program Files\Exact Audio Copy\FLAC\FLAC.EXE
Дополнительные параметры : -V -8 -T "Date=%year%" -T "Genre=%genre%" %source%
TOC извлечённого CD
Трек | Старт | Длительность | Начальный сектор | Конечный сектор
---------------------------------------------------------------------
1 | 0:00.00 | 3:23.34 | 0 | 15258
2 | 3:23.34 | 2:57.21 | 15259 | 28554
3 | 6:20.55 | 5:07.69 | 28555 | 51648
4 | 11:28.49 | 6:08.05 | 51649 | 79253
5 | 17:36.54 | 8:19.54 | 79254 | 116732
6 | 25:56.33 | 6:11.11 | 116733 | 144568
7 | 32:07.44 | 5:27.68 | 144569 | 169161
8 | 37:35.37 | 3:47.04 | 169162 | 186190
Характеристики диапазона извлечения и сообщения об ошибках
Выбранный диапазон
Имя файла D:\Up-Down\Rudi Berger - In Search of Harmony\Rudi Berger - In Search of Harmony.wav
Пиковый уровень 100.0 %
Скорость извлечения 1.8 X
Качество диапазона 100.0 %
CRC теста 63C180FF
CRC копии 63C180FF
Копирование... OK
Ошибок не произошло
AccurateRip: сводка
Трек 1 отсутствует в базе данных
Трек 2 отсутствует в базе данных
Трек 3 отсутствует в базе данных
Трек 4 отсутствует в базе данных
Трек 5 отсутствует в базе данных
Трек 6 отсутствует в базе данных
Трек 7 отсутствует в базе данных
Трек 8 отсутствует в базе данных
Ни одного трека нет в базе AccurateRip
Конец отчёта
==== Контрольная сумма отчёта 2EEFD274BC5468422F33B431F5CE8F856B8B8BC6E7B48B7B29B3ACB695BBF66A ====
 
Состав
Rudi Berger - violin, piano, vocals
Ricardo Fiuza - keyboards
Beto Lopes - gutars
Ivan Correa - bass
Davide Giovannini - drums
05:10
267
Нет комментариев. Ваш будет первым!