Поиск

(World Fusion / Post-Bop) Trio Globo - Steering By The Stars (Eugene Friesen / Howard Levy / Glen Velez) - 2010, FLAC (image+.cue) lossless

Trio Globo / Steering By The Stars
Жанр: World Fusion / Post-Bop
Год издания диска: 2010
Издатель (лейбл): Stonecutter records
Страна: USA
Аудио кодек: FLAC (*.flac)
Тип рипа: image+.cue
Битрейт аудио: lossless
Продолжительность: 65:36
Источник (релизер): CD
Наличие сканов в содержимом раздачи: да
Треклист:
1. Steering by the Stars [5:08]
2. In the Village [4:39]
3. Sapphire [4:28]
4. Miriam's Prophecy [7:29]
5. Ghost in My Heart [4:31]
6. Three Musicians [7:34]
7. Giant Steps [4:19]
8. Promenade [4:41]
9. Tuppim [5:59]
10. Off the Top [6:20]
11. Cross Currents [4:50]
12. Cold Day in January [1:54]
13. This Land is Your Land [4:03]
 
Лог создания рипа
Exact Audio Copy V0.99 prebeta 4 from 23. January 2008
Отчёт EAC об извлечении, выполненном 6. апреля 2011, 1:40
Trio Globo / Steering By The Stars
Дисковод: Optiarc DVD RW AD-7200S Adapter: 0 ID: 1
Режим чтения : Достоверность
Использование точного потока : Да
Отключение кэша аудио : Да
Использование указателей C2 : Нет
Коррекция смещения при чтении : 48
Способность читать области Lead-in и Lead-out : Нет
Заполнение пропущенных сэмплов тишиной : Да
Удаление блоков с тишиной в начале и конце : Нет
При вычислениях CRC использовались нулевые сэмплы : Да
Интерфейс : Встроенный Win32-интерфейс для Win NT/2000
Выходной формат : Пользовательский кодировщик
Выбранный битрейт : 768 kBit/s
Качество : Высокий
Добавление ID3-тэга : Нет
Утилита сжатия : D:\Program Files\Exact Audio Copy\FLAC\FLAC.EXE
Дополнительные параметры : -6 -V -T "ARTIST=%a" -T "TITLE=%t" -T "ALBUM=%g" -T "DATE=%y" -T "TRACKNUMBER=%n" -T "GENRE=%m" -T "COMMENT=%e" %s -o %d
TOC извлечённого CD
Трек | Старт | Длительность | Начальный сектор | Конечный сектор
---------------------------------------------------------------------
1 | 0:00.00 | 5:07.63 | 0 | 23087
2 | 5:07.63 | 4:38.26 | 23088 | 43963
3 | 9:46.14 | 4:28.05 | 43964 | 64068
4 | 14:14.19 | 7:22.51 | 64069 | 97269
5 | 21:36.70 | 4:31.19 | 97270 | 117613
6 | 26:08.14 | 7:33.23 | 117614 | 151611
7 | 33:41.37 | 4:20.62 | 151612 | 171173
8 | 38:02.24 | 4:38.65 | 171174 | 192088
9 | 42:41.14 | 5:59.42 | 192089 | 219055
10 | 48:40.56 | 6:06.02 | 219056 | 246507
11 | 54:46.58 | 1:55.38 | 246508 | 255170
12 | 56:42.21 | 4:49.13 | 255171 | 276858
13 | 61:31.34 | 4:03.19 | 276859 | 295102
Характеристики диапазона извлечения и сообщения об ошибках
Выбранный диапазон
Имя файла \\NUMBER2\Files (W)\Music\Flac_APE\Trio Globo\Trio Globo - Steering By The Stars (2010)\Trio Globo - Steering By The Stars.wav
Пиковый уровень 100.0 %
Качество диапазона 100.0 %
CRC теста 9AF3CB5C
CRC копии 9AF3CB5C
Копирование... OK
Ошибок не произошло
AccurateRip: сводка
Трек 1 нет в базе данных
Трек 2 нет в базе данных
Трек 3 нет в базе данных
Трек 4 нет в базе данных
Трек 5 нет в базе данных
Трек 6 нет в базе данных
Трек 7 нет в базе данных
Трек 8 нет в базе данных
Трек 9 нет в базе данных
Трек 10 нет в базе данных
Трек 11 нет в базе данных
Трек 12 нет в базе данных
Трек 13 нет в базе данных
Ни одного трека нет в базе AccurateRip
Конец отчёта
 
Содержание индексной карты (.CUE)
REM GENRE Jazz
REM DATE 2010
REM DISCID C20F5E0D
REM COMMENT "ExactAudioCopy v0.99pb4"
PERFORMER "Trio Globo"
TITLE "Steering By The Stars"
FILE "Trio Globo - Steering By The Stars.flac" WAVE
TRACK 01 AUDIO
TITLE "Steering By The Stars"
PERFORMER "Trio Globo"
INDEX 01 00:00:00
TRACK 02 AUDIO
TITLE "In The Village"
PERFORMER "Trio Globo"
INDEX 00 05:07:45
INDEX 01 05:07:63
TRACK 03 AUDIO
TITLE "Sapphire"
PERFORMER "Trio Globo"
INDEX 00 09:45:71
INDEX 01 09:46:14
TRACK 04 AUDIO
TITLE "Miriam's Prophecy"
PERFORMER "Trio Globo"
INDEX 00 14:14:01
INDEX 01 14:14:19
TRACK 05 AUDIO
TITLE "Ghost In My Heart"
PERFORMER "Trio Globo"
INDEX 00 21:36:41
INDEX 01 21:36:70
TRACK 06 AUDIO
TITLE "Three Musicians"
PERFORMER "Trio Globo"
INDEX 00 26:07:72
INDEX 01 26:08:14
TRACK 07 AUDIO
TITLE "Giant Steps"
PERFORMER "Trio Globo"
INDEX 00 33:41:12
INDEX 01 33:41:37
TRACK 08 AUDIO
TITLE "Promenade"
PERFORMER "Trio Globo"
INDEX 00 38:01:25
INDEX 01 38:02:24
TRACK 09 AUDIO
TITLE "Tuppim"
PERFORMER "Trio Globo"
INDEX 00 42:40:40
INDEX 01 42:41:14
TRACK 10 AUDIO
TITLE "Off The Top"
PERFORMER "Trio Globo"
INDEX 00 48:39:72
INDEX 01 48:40:56
TRACK 11 AUDIO
TITLE "Cross Currents"
PERFORMER "Trio Globo"
INDEX 00 54:46:42
INDEX 01 54:46:58
TRACK 12 AUDIO
TITLE "Cold Day In January"
PERFORMER "Trio Globo"
INDEX 00 56:41:20
INDEX 01 56:42:21
TRACK 13 AUDIO
TITLE "This Land Is Your Land"
PERFORMER "Trio Globo"
INDEX 00 61:30:06
INDEX 01 61:31:34
 
Доп. информация
Trio Globo has crafted a totally original voice in contemporary acoustic jazz.
With roots in jazz, classical and sacred music, rhythmic influences derived
from travels in six continents, and a combustible spontaneity, cellist Eugene
Friesen (Paul Winter Consort), pianist and master harmonica player Howard Levy
(Bela Fleck and the Flecktones, Kenny Loggins, Paquito d’Rivera), and
percussionist Glen Velez (Paul Winter Consort, Steve Reich) epitomize the
quintessential group for the 21st century -- true originals re-inventing their
instruments in new music both personal and global.
21:09
345
Нет комментариев. Ваш будет первым!