Поиск

(World Fusion, Post-Bop, JMT Productions) Marc Johnson’s Right Brain Patrol (Wolfgang Muthspiel, Arto Tuncboyaciyan) - Magic Labyrinth - 1995, FLAC (tracks+.cue), lossless

(World Fusion, Post-Bop, JMT Productions) Marc Johnson’s Right Brain Patrol (Wolfgang Muthspiel, Arto Tuncboyaciyan) - Magic Labyrinth - 1995, FLAC (tracks+.cue), lossless
Издатель (лейбл):
Треклист:
Marc Johnson’s Right Brain Patrol / Magic Labyrinth
Жанр: World Fusion, Post-Bop
Страна-производитель диска: Germany
Год издания: 1995
Издатель (лейбл): JMT Productions
Номер по каталогу: JMT 514 018-2
Аудиокодек: FLAC (*.flac)
Тип рипа: tracks+.cue
Битрейт аудио: lossless
Продолжительность: 50:54
Источник (релизер): Max Monteiro
Наличие сканов в содержимом раздачи: нет
Треклист:
1. Samurai Hee-Haw (Marc Johnson) 7:37
2. J. P. (Arto Tunçboyaciyan) 8:32
3. Solar (Miles Davis) 3:21
4. A Paco (Wolfgang Muthspiel) 6:32
5. Forest Bower (Marc Johnson) 3:00
6. Street Walk (Arto Tunçboyaciyan) 3:56
7. Magic Labyrinth (Marc Alan Johnson / Wolfgang Muthspiel) 5:34
8. Around That Time (Wolfgang Muthspiel) 5:29
9. Ne um talvez (Hermeto Pascoal) 6:55
Recorded at Bauer Studios, Ludwigsburg in June 1994.
Marc Alan Johnson – Acoustic Bass
Wolfgang Muthspiel – Acoustic & Electric Guitars, Guitar Synthesizer
Arto Tunçboyaciyan – Percussion, Drums and Voice
 
Лог создания рипа
Exact Audio Copy V1.0 beta 3 from 29. August 2011
EAC extraction logfile from 17. September 2013, 17:05
Marc Johnson's Right Brain Patrol / Magic Labyrinth
Used drive : SlimtypeeNAU508 5 Adapter: 1 ID: 0
Read mode : Secure
Utilize accurate stream : Yes
Defeat audio cache : Yes
Make use of C2 pointers : No
Read offset correction : 6
Overread into Lead-In and Lead-Out : No
Fill up missing offset samples with silence : Yes
Delete leading and trailing silent blocks : No
Null samples used in CRC calculations : Yes
Used interface : Native Win32 interface for Win NT & 2000
Gap handling : Appended to previous track
Used output format : User Defined Encoder
Selected bitrate : 768 kBit/s
Quality : High
Add ID3 tag : No
Command line compressor : C:\Program Files (x86)\Exact Audio Copy\Flac\flac.exe
Additional command line options : -8 -V -T "ARTIST=%artist%" -T "TITLE=%title%" -T "ALBUM=%albumtitle%" -T "DATE=%year%" -T "TRACKNUMBER=%tracknr%" -T "GENRE=%genre%" -T "PERFORMER=%albuminterpret%" -T "COMPOSER=%composer%" %haslyrics%--tag-from-file=LYRICS="%lyricsfile%"%haslyrics% -T "ALBUMARTIST=%albumartist%" -T "DISCNUMBER=%cdnumber%" -T "TOTALDISCS=%totalcds%" -T "TOTALTRACKS=%numtracks%" -T "COMMENT=%comment%" %source% -o %dest%
TOC of the extracted CD
Track | Start | Length | Start sector | End sector
---------------------------------------------------------
1 | 0:00.00 | 7:36.65 | 0 | 34264
2 | 7:36.65 | 8:31.50 | 34265 | 72639
3 | 16:08.40 | 3:20.63 | 72640 | 87702
4 | 19:29.28 | 6:31.47 | 87703 | 117074
5 | 26:01.00 | 3:00.05 | 117075 | 130579
6 | 29:01.05 | 3:55.43 | 130580 | 148247
7 | 32:56.48 | 5:33.65 | 148248 | 173287
8 | 38:30.38 | 5:28.55 | 173288 | 197942
9 | 43:59.18 | 6:55.15 | 197943 | 229082
Track 1
Filename C:\EAC rips\01 - Samurai Hee-Haw.wav
Pre-gap length 0:00:02.00
Peak level 89.1 %
Extraction speed 1.2 X
Track quality 100.0 %
Test CRC 29700D74
Copy CRC 29700D74
Accurately ripped (confidence 7) [0A66AFED] (AR v2)
Copy OK
Track 2
Filename C:\EAC rips\02 - J. P..wav
Pre-gap length 0:00:02.00
Peak level 89.1 %
Extraction speed 1.4 X
Track quality 100.0 %
Test CRC ECD540BA
Copy CRC ECD540BA
Accurately ripped (confidence 7) [5912B877] (AR v2)
Copy OK
Track 3
Filename C:\EAC rips\03 - Solar.wav
Pre-gap length 0:00:00.15
Peak level 61.4 %
Extraction speed 1.2 X
Track quality 99.9 %
Test CRC D9C04F5D
Copy CRC D9C04F5D
Accurately ripped (confidence 7) [55D22AAF] (AR v2)
Copy OK
Track 4
Filename C:\EAC rips\04 - A Paco.wav
Pre-gap length 0:00:03.28
Peak level 91.6 %
Extraction speed 1.6 X
Track quality 100.0 %
Test CRC 7198932F
Copy CRC 7198932F
Accurately ripped (confidence 7) [C0A506F7] (AR v2)
Copy OK
Track 5
Filename C:\EAC rips\05 - Forest Bower.wav
Pre-gap length 0:00:03.22
Peak level 79.8 %
Extraction speed 1.6 X
Track quality 100.0 %
Test CRC FEAC2F7D
Copy CRC FEAC2F7D
Accurately ripped (confidence 7) [108B9E0B] (AR v2)
Copy OK
Track 6
Filename C:\EAC rips\06 - Street Walk.wav
Pre-gap length 0:00:03.07
Peak level 77.9 %
Extraction speed 1.7 X
Track quality 100.0 %
Test CRC 05F816C8
Copy CRC 05F816C8
Accurately ripped (confidence 7) [3199840C] (AR v2)
Copy OK
Track 7
Filename C:\EAC rips\07 - Magic Labyrinth.wav
Pre-gap length 0:00:04.25
Peak level 91.3 %
Extraction speed 1.9 X
Track quality 100.0 %
Test CRC 213AE5DD
Copy CRC 213AE5DD
Accurately ripped (confidence 7) [53F88482] (AR v2)
Copy OK
Track 8
Filename C:\EAC rips\08 - Around That Time.wav
Pre-gap length 0:00:02.25
Peak level 89.1 %
Extraction speed 2.0 X
Track quality 100.0 %
Test CRC 6C351C67
Copy CRC 6C351C67
Accurately ripped (confidence 7) [4E2B2251] (AR v2)
Copy OK
Track 9
Filename C:\EAC rips\09 - Ne um talvez.wav
Pre-gap length 0:00:03.00
Peak level 87.3 %
Extraction speed 2.1 X
Track quality 100.0 %
Test CRC 7439EDD1
Copy CRC 7439EDD1
Accurately ripped (confidence 7) [02513C23] (AR v2)
Copy OK
All tracks accurately ripped
No errors occurred
End of status report
---- CUETools DB Plugin V2.1.4
[CTDB TOCID: A2S8Gh_XcOGpx9qCWzcU7b2X1tc-] found
Submit result: A2S8Gh_XcOGpx9qCWzcU7b2X1tc- has been confirmed
Track | CTDB Status
1 | (5/5) Accurately ripped
2 | (5/5) Accurately ripped
3 | (5/5) Accurately ripped
4 | (5/5) Accurately ripped
5 | (5/5) Accurately ripped
6 | (5/5) Accurately ripped
7 | (5/5) Accurately ripped
8 | (5/5) Accurately ripped
9 | (5/5) Accurately ripped
==== Log checksum 4E9B124515BFAC7CCDE8AED03D3AA6D9F5F3AB490C057C7B06FADC1BB956F3ED ====
 
Содержание индексной карты (.CUE)
REM GENRE Jazz
REM DATE 1995
REM DISCID 790BEE09
REM COMMENT "ExactAudioCopy v1.0b3"
PERFORMER "Marc Johnson's Right Brain Patrol"
TITLE "Magic Labyrinth"
FILE "01 - Samurai Hee-Haw.wav" WAVE
TRACK 01 AUDIO
TITLE "Samurai Hee-Haw"
PERFORMER "Marc Johnson's Right Brain Patrol"
ISRC JPPO09407680
INDEX 01 00:00:00
TRACK 02 AUDIO
TITLE "J. P."
PERFORMER "Marc Johnson's Right Brain Patrol"
ISRC JPPO09407690
INDEX 00 07:34:65
FILE "02 - J. P..wav" WAVE
INDEX 01 00:00:00
TRACK 03 AUDIO
TITLE "Solar"
PERFORMER "Marc Johnson's Right Brain Patrol"
ISRC JPPO09407700
INDEX 00 08:31:35
FILE "03 - Solar.wav" WAVE
INDEX 01 00:00:00
TRACK 04 AUDIO
TITLE "A Paco"
PERFORMER "Marc Johnson's Right Brain Patrol"
ISRC JPPO09407710
INDEX 00 03:17:35
FILE "04 - A Paco.wav" WAVE
INDEX 01 00:00:00
TRACK 05 AUDIO
TITLE "Forest Bower"
PERFORMER "Marc Johnson's Right Brain Patrol"
ISRC JPPO09407720
INDEX 00 06:28:25
FILE "05 - Forest Bower.wav" WAVE
INDEX 01 00:00:00
TRACK 06 AUDIO
TITLE "Street Walk"
PERFORMER "Marc Johnson's Right Brain Patrol"
ISRC JPPO09407730
INDEX 00 02:56:73
FILE "06 - Street Walk.wav" WAVE
INDEX 01 00:00:00
TRACK 07 AUDIO
TITLE "Magic Labyrinth"
PERFORMER "Marc Johnson's Right Brain Patrol"
ISRC JPPO09407740
INDEX 00 03:51:18
FILE "07 - Magic Labyrinth.wav" WAVE
INDEX 01 00:00:00
TRACK 08 AUDIO
TITLE "Around That Time"
PERFORMER "Marc Johnson's Right Brain Patrol"
ISRC JPPO09407750
INDEX 00 05:31:40
FILE "08 - Around That Time.wav" WAVE
INDEX 01 00:00:00
TRACK 09 AUDIO
TITLE "Ne um talvez"
PERFORMER "Marc Johnson's Right Brain Patrol"
ISRC JPPO09407760
INDEX 00 05:25:55
FILE "09 - Ne um talvez.wav" WAVE
INDEX 01 00:00:00
12:22
491
Нет комментариев. Ваш будет первым!