Поиск

(World Fusion) Paul Horn — A Special Edition (1976) — 1989, FLAC (image+.cue) lossless

Треклист:
Paul Horn — A Special Edition (1976)
Жанр: World Fusion
Год издания диска: 1989
Лейбл: Black Sun
Номер по каталогу: 15003-2
Аудио кодек: FLAC (*.flac)
Тип рипа: image+.cue
Битрейт аудио: lossless
Продолжительность: 72:48
Риппер: intothe
Сканы есть
Треклист:
01. Prelude (3:41)
02. Freedom Jazz Dance (4:24)
03. Summertime (8:29)
04. Tribute To Jobim (5:16)
05. Just Because We're Kids (4:09)
06. Willow Weep For Me (5:44)
07. Rain (5:36)
08. Dusk (19:00)
09. Dawn (8:46)
10. Forms (7:43)
Personnel:
Paul Horn - as, cl, fl, el-p
Lynn Blessing - vib
Art Johnson - el-g
Dave Parlato - el-b
Bart Hall - d, perc
 
 
Лог создания рипа
Exact Audio Copy V0.99 prebeta 5 from 4. May 2009
EAC extraction logfile from 19. March 2011, 13:27
Paul Horn / Special Edition
Used drive : _NEC DVD_RW ND-3500AG Adapter: 0 ID: 0
Read mode : Secure
Utilize accurate stream : Yes
Defeat audio cache : Yes
Make use of C2 pointers : No
Read offset correction : 48
Overread into Lead-In and Lead-Out : No
Fill up missing offset samples with silence : Yes
Delete leading and trailing silent blocks : No
Null samples used in CRC calculations : Yes
Used interface : Native Win32 interface for Win NT & 2000
Used output format : User Defined Encoder
Selected bitrate : 768 kBit/s
Quality : High
Add ID3 tag : No
Command line compressor : C:\Program Files\Exact Audio Copy\FLAC\FLAC.EXE
Additional command line options : -6 -V -T "ARTIST=%a" -T "TITLE=%t" -T "ALBUM=%g" -T "DATE=%y" -T "TRACKNUMBER=%n" -T "GENRE=%m" -T "COMMENT=%e" %s -o %d
TOC of the extracted CD
Track | Start | Length | Start sector | End sector
---------------------------------------------------------
1 | 0:00.00 | 3:40.42 | 0 | 16541
2 | 3:40.42 | 4:23.43 | 16542 | 36309
3 | 8:04.10 | 8:29.30 | 36310 | 74514
4 | 16:33.40 | 5:16.35 | 74515 | 98249
5 | 21:50.00 | 4:09.30 | 98250 | 116954
6 | 25:59.30 | 5:43.65 | 116955 | 142744
7 | 31:43.20 | 5:35.47 | 142745 | 167916
8 | 37:18.67 | 18:59.70 | 167917 | 253411
9 | 56:18.62 | 8:46.13 | 253412 | 292874
10 | 65:05.00 | 7:42.50 | 292875 | 327574
Range status and errors
Selected range
Filename J:\eMusic\Rip\Paul Horn - Special Edition.wav
Peak level 83.6 %
Range quality 99.9 %
Test CRC 18B18F10
Copy CRC 18B18F10
Copy OK
No errors occurred
AccurateRip summary
Track 1 accurately ripped (confidence 2) [BC6289D9]
Track 2 accurately ripped (confidence 2) [88EAC552]
Track 3 accurately ripped (confidence 2) [16976EF9]
Track 4 accurately ripped (confidence 2) [BEBBE782]
Track 5 accurately ripped (confidence 2) [47CA7A4C]
Track 6 accurately ripped (confidence 2) [7AA343FF]
Track 7 accurately ripped (confidence 2) [33918001]
Track 8 accurately ripped (confidence 2) [66544E67]
Track 9 accurately ripped (confidence 2) [B05D92AA]
Track 10 accurately ripped (confidence 2) [ADFB54BB]
All tracks accurately ripped
End of status report
 
Содержание индексной карты (.CUE)
REM GENRE Jazz
REM DATE 1976
REM DISCID 7D110F0A
REM COMMENT "ExactAudioCopy v0.99pb5"
PERFORMER "Paul Horn"
TITLE "Special Edition"
FILE "Paul Horn - Special Edition.flac" WAVE
TRACK 01 AUDIO
TITLE "Prelude"
PERFORMER "Paul Horn"
INDEX 01 00:00:00
TRACK 02 AUDIO
TITLE "Freedom Jazz Dance"
PERFORMER "Paul Horn"
INDEX 01 03:40:42
TRACK 03 AUDIO
TITLE "Summertime"
PERFORMER "Paul Horn"
INDEX 01 08:04:10
TRACK 04 AUDIO
TITLE "Tribute To Jobim"
PERFORMER "Paul Horn"
INDEX 00 16:31:52
INDEX 01 16:33:40
INDEX 02 18:36:27
INDEX 03 19:54:60
TRACK 05 AUDIO
TITLE "Just Because We're Kids"
PERFORMER "Paul Horn"
INDEX 01 21:50:00
TRACK 06 AUDIO
TITLE "Willow Weep For Me"
PERFORMER "Paul Horn"
INDEX 00 25:46:60
INDEX 01 25:59:30
TRACK 07 AUDIO
TITLE "Rain"
PERFORMER "Paul Horn"
INDEX 01 31:43:20
TRACK 08 AUDIO
TITLE "Dusk"
PERFORMER "Paul Horn"
INDEX 00 37:16:37
INDEX 01 37:18:67
TRACK 09 AUDIO
TITLE "Dawn"
PERFORMER "Paul Horn"
INDEX 00 56:16:55
INDEX 01 56:18:62
TRACK 10 AUDIO
TITLE "Forms"
PERFORMER "Paul Horn"
INDEX 00 65:02:67
INDEX 01 65:05:00
20:58
300
Нет комментариев. Ваш будет первым!