Поиск

(World Fusion) Nguyen Le - Tales from Viêt-nam - 1996, FLAC (image+.cue), lossless

(World Fusion) Nguyen Le - Tales from Viêt-nam - 1996, FLAC (image+.cue), lossless
Треклист:
Nguyên Lê - Tales from Viêt-nam
Жанр: Jazz
Год выпуска диска: 1996
Производитель диска: USA
Аудио кодек: FLAC
Тип рипа: image+.cue
Битрейт аудио: lossless
Продолжительность: 54:44
Nguyên Lê el., ac. & fretless guitars, guitar-synth., computer & synths
Huong Thanh vocals
Hao Nhien zither (dan tranh), dan bau, sao flute, sapek clappers
Paolo Fresu trumpet, flugelhorn
Simon Spang Hansen saxophones; concert, bass & african flute
Michel Benita acoustic bass
François Verly percussion, marimba, keyboards, piano
Joël Allouche drums (on 1,2,6,10)
Steve Argüelles drums, percussion (on 2,3,4,11)
The Guests:
Trilok Gurtu drums, percussion (on 5,8)
Thai An moon lute (dan nguyêt) (on 3)
The Wind Blew It Away - Qua câu gio bay
The Black Horse - Ly Ngua O
Don't You Go Away My Friend - Nguoi oi Nguoi O Dung Vê
Trông Com - The Rice Drum
Hen Ho - Promise of a date
The Banyan Tree Song - Ly Cai Da
Spring Of Life - Hoai Xuân
Ting Ning
Mangustao - Part 1
Mangustao - Part 2

 
EAC Report
Exact Audio Copy V0.99 prebeta 4 from 23. January 2008
EAC extraction logfile from 5. July 2008, 20:32
Nguyên Lê / Tales from Viêt-nam
Used drive : TSSTcorpCD/DVDW SH-S182M Adapter: 2 ID: 0
Read mode : Secure
Utilize accurate stream : Yes
Defeat audio cache : Yes
Make use of C2 pointers : No
Read offset correction : 6
Overread into Lead-In and Lead-Out : No
Fill up missing offset samples with silence : Yes
Delete leading and trailing silent blocks : No
Null samples used in CRC calculations : No
Used interface : Installed external ASPI interface
Used output format : User Defined Encoder
Selected bitrate : 768 kBit/s
Quality : High
Add ID3 tag : No
Command line compressor : C:\Program Files\Exact Audio Copy\FLAC\FLAC.EXE
Additional command line options : -6 -V -T "ARTIST=%a" -T "TITLE=%t" -T "ALBUM=%g" -T "DATE=%y" -T "TRACKNUMBER=%n" -T "GENRE=%m" -T "COMMENT=%e" %s -o %d
TOC of the extracted CD
Track | Start | Length | Start sector | End sector
---------------------------------------------------------
1 | 0:00.00 | 7:33.17 | 0 | 33991
2 | 7:33.17 | 4:11.15 | 33992 | 52831
3 | 11:44.32 | 7:27.40 | 52832 | 86396
4 | 19:11.72 | 4:07.10 | 86397 | 104931
5 | 23:19.07 | 5:26.05 | 104932 | 129386
6 | 28:45.12 | 8:20.60 | 129387 | 166946
7 | 37:05.72 | 3:22.48 | 166947 | 182144
8 | 40:28.45 | 3:44.35 | 182145 | 198979
9 | 44:13.05 | 4:36.10 | 198980 | 219689
10 | 48:49.15 | 5:54.32 | 219690 | 246271
Range status and errors
Selected range
Filename F:\z\Nguyên Lê - Tales from Viêt-nam.wav
Peak level 100.0 %
Range quality 100.0 %
Copy CRC A4C948CC
Copy OK
No errors occurred
AccurateRip summary
Track 1 cannot be verified as accurate (confidence 2) [14B914E5], AccurateRip returned [7A0666F0]
Track 2 cannot be verified as accurate (confidence 2) [14B300A3], AccurateRip returned [384972FF]
Track 3 cannot be verified as accurate (confidence 2) [AE5EB5FA], AccurateRip returned [1A64917C]
Track 4 cannot be verified as accurate (confidence 2) [F61E8001], AccurateRip returned [DC9FB8F3]
Track 5 cannot be verified as accurate (confidence 2) [DC739515], AccurateRip returned [F994902D]
Track 6 cannot be verified as accurate (confidence 2) [9CDE3878], AccurateRip returned [593A6296]
Track 7 cannot be verified as accurate (confidence 2) [25A0E7B5], AccurateRip returned [9FAAFC01]
Track 8 cannot be verified as accurate (confidence 2) [05B45ED0], AccurateRip returned [FB898E19]
Track 9 cannot be verified as accurate (confidence 2) [9229D023], AccurateRip returned [F2BEBF58]
Track 10 not present in database
9 track(s) could not be verified as accurate
1 track(s) not present in the AccurateRip database
No tracks could be verified as accurate
You may have a different pressing from the one(s) in the database
End of status report



03:00
319
Нет комментариев. Ваш будет первым!