Поиск

(World Fusion, Neo Indian Classical, Electronica) [CD] Suphala (ft Norah Jones, Martin Sewell, Vernon Reid, Neel Murgai, Niladri Kumar, Antonio Banderas, Melanie Griffith) - The Now - 2005, FLAC (tracks+.cue), lossless

(World Fusion, Neo Indian Classical, Electronica) [CD] Suphala (ft Norah Jones, Martin Sewell, Vernon Reid, Neel Murgai, Niladri Kumar, Antonio Banderas, Melanie Griffith) - The Now - 2005, FLAC (tracks+.cue), lossless
Треклист:
Suphala / The Now
Жанр: World Fusion, Neo Indian Сlassical, Electronica
Носитель: CD
Страна-производитель диска (релиза): USA
Год издания: 2005
Издатель (лейбл): Rasā Music
Номер по каталогу: RS-3155-2
Страна исполнителя (группы): India
Аудиокодек: FLAC (*.flac)
Тип рипа: tracks+.cue
Битрейт аудио: lossless
Продолжительность: 00:54:04
Источник (релизер): (вата - благодарности wicing)
Наличие сканов в содержимом раздачи: да
Треклист:
01 Transport (Lead Vocals – Norah Jones) 5:20
02 Memory 4:52
03 Wind Farm Harvest (Lead Vocals – Suphala) 4:09
04 Forever Maybe (Lead Vocals – Vikter Duplaix) 3:58
05 Piscean Dreamer (Lead Vocals – Suphala) 4:52
06 Twin (Lead Vocals – Vijay Prakash) 5:32
07 Secret Language 4:32
08 Lover (Vocals – Antonio Banderas, Melanie Griffith) 4:00
09 Hallway Man (Backing Vocals – Suphala; Lead Vocals – Carol C) 5:08
10 Night Flower (Lead Vocals – Peter Macon) 3:57
11 Meeting 2:49
12 Destination (Lead Vocals – Suphala) 4:49
Доп. информация: http://suphala.com/
Другие релизы Суфалы в лосслесс:
Suphala (ft Edie Brickell, Rakesh Chaurasia, Vikter Duplaix, King Britt, Vernon Reid, Mazz Swift, Harper Simon) - Blueprint - 2007, FLAC (tracks+.cue), lossless
Suphala (ft Jose James, Vijay Iyer, Bill Laswell, Amir ElSaffar ect.) - Alien Ancestry - 2013, FLAC (tracks+.cue), lossless
 
Alternate cover

 
Лог создания рипа
Exact Audio Copy V1.0 beta 3 from 29. August 2011
EAC extraction logfile from 27. March 2014, 12:15
Suphala / The Now
Used drive : TSSTcorpDVD+-RW TS-H653B Adapter: 1 ID: 0
Read mode : Secure
Utilize accurate stream : Yes
Defeat audio cache : Yes
Make use of C2 pointers : No
Read offset correction : 6
Overread into Lead-In and Lead-Out : No
Fill up missing offset samples with silence : Yes
Delete leading and trailing silent blocks : No
Null samples used in CRC calculations : Yes
Used interface : Installed external ASPI interface
Gap handling : Appended to previous track
Used output format : User Defined Encoder
Selected bitrate : 320 kBit/s
Quality : High
Add ID3 tag : No
Command line compressor : C:\Program Files\Exact Audio Copy\Flac\flac.exe
Additional command line options : -V -8 -T "artist=%artist%" -T "title=%title%" -T "album=%albumtitle%" -T "date=%year%" -T "tracknumber=%tracknr%" -T "genre=%genre%" -5 %source%
TOC of the extracted CD
Track | Start | Length | Start sector | End sector
---------------------------------------------------------
1 | 0:00.00 | 5:20.63 | 0 | 24062
2 | 5:20.63 | 4:52.69 | 24063 | 46031
3 | 10:13.57 | 4:09.47 | 46032 | 64753
4 | 14:23.29 | 3:58.19 | 64754 | 82622
5 | 18:21.48 | 4:52.31 | 82623 | 104553
6 | 23:14.04 | 5:32.73 | 104554 | 129526
7 | 28:47.02 | 4:32.71 | 129527 | 149997
8 | 33:19.73 | 4:00.38 | 149998 | 168035
9 | 37:20.36 | 5:08.55 | 168036 | 191190
10 | 42:29.16 | 3:57.21 | 191191 | 208986
11 | 46:26.37 | 2:49.13 | 208987 | 221674
12 | 49:15.50 | 4:47.72 | 221675 | 243271
13 | 56:35.47 | 15:04.72 | 254672 | 322543
Track 1
Filename Z:\tmp\Suphala - The Now\01 Transport.wav
Pre-gap length 0:00:02.00
Peak level 98.8 %
Extraction speed 4.7 X
Track quality 100.0 %
Test CRC ECF8AD7F
Copy CRC ECF8AD7F
Accurately ripped (confidence 1) [C616F73F] (AR v2)
Copy OK
Track 2
Filename Z:\tmp\Suphala - The Now\02 Memory.wav
Peak level 94.4 %
Extraction speed 5.2 X
Track quality 100.0 %
Test CRC A9CB7CE0
Copy CRC A9CB7CE0
Accurately ripped (confidence 1) [939048D6] (AR v2)
Copy OK
Track 3
Filename Z:\tmp\Suphala - The Now\03 Wind Farm Harvest.wav
Peak level 98.8 %
Extraction speed 4.5 X
Track quality 99.9 %
Test CRC EB7FEAB1
Copy CRC EB7FEAB1
Accurately ripped (confidence 1) [B61347EF] (AR v2)
Copy OK
Track 4
Filename Z:\tmp\Suphala - The Now\04 Forever Maybe.wav
Peak level 98.8 %
Extraction speed 5.9 X
Track quality 100.0 %
Test CRC D5868EE7
Copy CRC D5868EE7
Accurately ripped (confidence 1) [EE2EBEB4] (AR v2)
Copy OK
Track 5
Filename Z:\tmp\Suphala - The Now\05 Piscean Dreamer.wav
Peak level 99.6 %
Extraction speed 4.7 X
Track quality 100.0 %
Test CRC 4C11825B
Copy CRC 4C11825B
Accurately ripped (confidence 1) [6C8D4366] (AR v2)
Copy OK
Track 6
Filename Z:\tmp\Suphala - The Now\06 Twin.wav
Peak level 100.0 %
Extraction speed 5.8 X
Track quality 99.9 %
Test CRC 0C27B2BC
Copy CRC 0C27B2BC
Accurately ripped (confidence 1) [4ADDAFB3] (AR v2)
Copy OK
Track 7
Filename Z:\tmp\Suphala - The Now\07 Secret Language.wav
Peak level 100.0 %
Extraction speed 7.0 X
Track quality 100.0 %
Test CRC 1CC637CC
Copy CRC 1CC637CC
Accurately ripped (confidence 1) [374B77A9] (AR v2)
Copy OK
Track 8
Filename Z:\tmp\Suphala - The Now\08 Lover.wav
Peak level 98.8 %
Extraction speed 6.6 X
Track quality 100.0 %
Test CRC 3BFCCC1A
Copy CRC 3BFCCC1A
Accurately ripped (confidence 1) [D365E616] (AR v2)
Copy OK
Track 9
Filename Z:\tmp\Suphala - The Now\09 Hallway Man.wav
Peak level 98.8 %
Extraction speed 6.4 X
Track quality 99.9 %
Test CRC 5EC167F4
Copy CRC 5EC167F4
Accurately ripped (confidence 1) [F71BA2F1] (AR v2)
Copy OK
Track 10
Filename Z:\tmp\Suphala - The Now\10 Night Flower.wav
Peak level 98.8 %
Extraction speed 7.3 X
Track quality 100.0 %
Test CRC C534556D
Copy CRC C534556D
Accurately ripped (confidence 1) [E65EB37A] (AR v2)
Copy OK
Track 11
Filename Z:\tmp\Suphala - The Now\11 Meeting.wav
Peak level 98.8 %
Extraction speed 7.3 X
Track quality 100.0 %
Test CRC 94C833C5
Copy CRC 94C833C5
Accurately ripped (confidence 1) [35216BB4] (AR v2)
Copy OK
Track 12
Filename Z:\tmp\Suphala - The Now\12 Destination.wav
Peak level 98.8 %
Extraction speed 8.4 X
Track quality 100.0 %
Test CRC A9214E30
Copy CRC A9214E30
Accurately ripped (confidence 1) [19825820] (AR v2)
Copy OK
All tracks accurately ripped
No errors occurred
End of status report
==== Log checksum 97764D0CE31AC855F949CFDFE1FAB66F0725931F815AA3D1A4CD00B3B494117B ====
 
Содержание индексной карты (.CUE)
REM GENRE "New Age"
REM DATE 2005
REM DISCID B310CC0D
REM COMMENT "ExactAudioCopy v1.0b3"
PERFORMER "Suphala"
TITLE "The Now"
FILE "01 Transport.wav" WAVE
TRACK 01 AUDIO
TITLE "Transport"
PERFORMER "Suphala"
INDEX 01 00:00:00
FILE "02 Memory.wav" WAVE
TRACK 02 AUDIO
TITLE "Memory"
PERFORMER "Suphala"
INDEX 01 00:00:00
FILE "03 Wind Farm Harvest.wav" WAVE
TRACK 03 AUDIO
TITLE "Wind Farm Harvest"
PERFORMER "Suphala"
INDEX 01 00:00:00
FILE "04 Forever Maybe.wav" WAVE
TRACK 04 AUDIO
TITLE "Forever Maybe"
PERFORMER "Suphala"
INDEX 01 00:00:00
FILE "05 Piscean Dreamer.wav" WAVE
TRACK 05 AUDIO
TITLE "Piscean Dreamer"
PERFORMER "Suphala"
INDEX 01 00:00:00
FILE "06 Twin.wav" WAVE
TRACK 06 AUDIO
TITLE "Twin"
PERFORMER "Suphala"
INDEX 01 00:00:00
FILE "07 Secret Language.wav" WAVE
TRACK 07 AUDIO
TITLE "Secret Language"
PERFORMER "Suphala"
INDEX 01 00:00:00
FILE "08 Lover.wav" WAVE
TRACK 08 AUDIO
TITLE "Lover"
PERFORMER "Suphala"
INDEX 01 00:00:00
FILE "09 Hallway Man.wav" WAVE
TRACK 09 AUDIO
TITLE "Hallway Man"
PERFORMER "Suphala"
INDEX 01 00:00:00
FILE "10 Night Flower.wav" WAVE
TRACK 10 AUDIO
TITLE "Night Flower"
PERFORMER "Suphala"
INDEX 01 00:00:00
FILE "11 Meeting.wav" WAVE
TRACK 11 AUDIO
TITLE "Meeting"
PERFORMER "Suphala"
INDEX 01 00:00:00
FILE "12 Destination.wav" WAVE
TRACK 12 AUDIO
TITLE "Destination"
PERFORMER "Suphala"
INDEX 01 00:00:00
TRACK 13 MODEx/2xxx
TITLE "DATA"
PERFORMER "Suphala"
INDEX 00 04:47:72
 
Об исполнителе | About Artist
Suphala is one of the most versatile young tabla artists making music today. Raised in the U.S. by Indian parents, Suphala began learning western classical music on the piano at age four, performing at age five, and as a teenager transferred her passion to one of the world’s most complex percussion instruments: the tabla. She combines an unparalleled technical command of her instrument with a playful sense of experimentation as she switches effortlessly between composing, producing and performing.
Suphala is a protégé of the great tabla masters Ustad Allarakha and Ustad Zakir Hussain, whose constant inspiration compels her not only to dedicate herself to the study of Indian classical music but also to extend the reach of the tabla into an ever-growing variety of musical genres and cultural contexts. Her fluency in a diversity of musical traditions informs her unique compositions and her highly improvisational performances. The three albums she has released to date – Instru Mental (2000), The Now (2005) and Blueprint (2007) – go beyond the limits of genre and style while referencing such diverse influences as Western classical, Indian classical, jazz, folk and soul. But it’s not just her original music that is groundbreaking, her concerts provide an inspiring case-study in cultural diplomacy: she made history in early 2005 when she traveled to Kabul, Afghanistan as the first musician to play in public since the fall of the Taliban. According to the New York Times, "Kabul's badly depleted music scene received a welcome injection of excitement last week. [Her] arrival… caused a sensation in the war-torn country. ‘I have not played with a woman before,’ one Afghan tabla master said. ‘Our grandfathers do not even know of it.’”
Collaboration is one of the touchstones of her prodigious musical output: the musicians she has recorded or performed with include Norah Jones, Perry Farrell, Edie Brickell, Vernon Reid, Timbaland, Sean Lennon, 4Hero, Harper Simon, Yoko Ono, Vijay Iyer, Joan Osbourne, and Michael Bland among others. These artists have variously sought Suphala out to lend her talents to tours, her songwriting skills to specific tracks or her producing prowess to recordings. The artistic alliances Suphala forms -- including ensembles with vocals, strings, woodwinds, reeds and percussion -- are an integral part of her innovative approach to making music.
With her unique rhythmic and melodic vocabulary and production chops that are both rigorous and inventive, the next phase of Suphala’s evolving musical expression is bound to continue a trajectory rooted in a deep understanding of the proud legacy of the tabla and a passionate commitment to expand the scope of its expression and to communicate it to the wider world.
http://suphala.com/
http://en.wikipedia.org/wiki/Suphala
 
Об альбоме | About Album
"Music is the answer to the mistery of life. The most profound of all the arts, it expresses the deepest thoughts of life".
Arthur Schopenhauer
Suphala go beyond the limits of genre and style while referencing such diverse influences as Western classical, Indian classical, jazz, folk and soul.
THE NOW CONCEPT
To say one's music is futuristic is ignorance, as the great masters have done it all before. Not only they, but the wind, the ocean, the silence, the universe is playing... Creating... Music in every breath.
With technology a part of nature, we continue to create what is infinite : rhythm and melody - found only in the now - the only reality which truly exists.
"The Now", because it is this very moment. Timeless... A portal into a world you want to be in... The music, a vehicle to take you here.
 
Состав | Artists
Backing Vocals – Salim Merchant
Bass – Dana Leong, Hank Scroy
Bells – Suphala
Darbuka – Glen Fittin
Drum Programming – DJ Kiva, Suphala, Vernon Reid
Flute – Dana Leong
Guitar – Martin Sewell, Vernon Reid
Keyboards – Salim Merchant, Suphala
Percussion – Suphala
Producer – Suphala
Sitar – Neel Murgai, Niladri Kumar
Tabla – Suphala
Trombone – Dana Leong
Violin – Mazz Swift
Суфала Патанкар – искусная табла-исполнительница, композитор, продюсер, ученица Алла Ракхи и Закир Хусейна. Ее родители – выходцы из Индии. Ее отец – Suhas В. Patankar – известный индо-американский инженер-механик, пионер в области вычислительной гидродинамики и метода конечных объемов. С четырех лет Суфала обучалась музыкальному искусству, причем параллельно – игре на табла и на фортепиано. В ее работах классическая индийская традиция сочетается с современными аранжировками. Ее творчество изобилует неимоверным количеством различных жанров – от эйсид-джаза и фьюжна до нео-фолка и соула.
19:10
397
Нет комментариев. Ваш будет первым!