Поиск

(World Fusion, Modern Free, ECM) [CD] Ferenc Snetberger - Titok - 2017, FLAC (tracks+.cue), lossless

(World Fusion, Modern Free, ECM) [CD] Ferenc Snetberger - Titok - 2017, FLAC (tracks+.cue), lossless
Ferenc Snetberger - Titok Жанр: World Fusion, Modern Free, ECM
Носитель: CD
Год издания: 2017
Издатель (лейбл): ECM
Номер по каталогу: ECM 2468
Аудиокодек: FLAC (*.flac)
Тип рипа: tracks+.cue
Битрейт аудио: lossless
Продолжительность: 60:50
Rip by jlgt
Наличие сканов в содержимом раздачи: да
Треклист:
01. Cou Cou (2:56)
02. Titok (2:21)
03. Kek Kerek (4:04)
04. Rambling (7:27)
05. Orange Tango (5:15)
06. Fairytale (5:27)
07. Alom (7:10)
08. Leolo (5:57)
09. Ease (5:28)
10. Renaissance (5:23)
11. Clown (5:09)
12. Rush (1:56)
13. Inference (2:16)
Personnel:
Ferenc Snétberger - g
Anders Jormin - b
Joey Baron - d
 
 
Об альбоме (сборнике)
Hungarian guitarist Ferenc Snétberger leads a trio with Swedish bassist Anders Jormin and US drummer Joey Baron in this warm and involving recording, produced by Manfred Eicher in Oslo, and intensely melodic improvisation draws the listener gently into its sound-world. The gracefully flowing guitar (Snétberger has a way of making even complex phrases seem effortless), the enveloping rhythmic undertow, and the highly creative playing from all participants captivate throughout Titok. There is soloistic brilliance here and high-level interplay, and the music takes the time it needs to unfold, breathing very naturally. The compound sound of the trio, with Ferenc’s acoustic nylon-string guitar partnered by bass and drums, is special. Joey Baron shades and colours the music with great subtlety using brushes, stick and hands, and the rapport between Snétberger and Jormin is evident from the outset, as both guitar and bass explore the contours of Ferenc’s compositions. “The dialogue here between classical guitar and Anders’s way of playing the bass seems to me unique,” observes Ferenc Snétberger. “Anders has a special ‘voicing’, a special way of entering into my music. And, together, he and Joey offer inspirations which are mirrored in my playing. Manfred’s participation was also inspiring without his ideas, and his choice of pieces and the sequencing of them, the album could not have existed in this form.”
The producer recommended Jormin and Baron for this project and the trio came together to play three concerts in Hungary before the session at Rainbow Studios, where spontaneity was the watchword. The album is framed by music freely created in the moment: the opening piece “Cou Cou”, the title track “Titok” and the three concluding pieces “Clown”, “Rush” and “Inference” are all improvised discoveries. The sense of searching and finding in the opening moments gives way to the clearly etched melody of “Kék Kerék”, a rather beautiful older melody of Ferenc’s. “Rambling” is the first of several pieces written for this trio, the writing leaving space for bass and drums to add their statements. The tenderly phrased “Fairytale” likewise invites Jormin to add countermelodies in the deep end. “Leolo”, dedicated to Ferenc and Angela Snétberger’s grandson Leo, begins with nursery rhyme melodic simplicity and develops into elegant chamber music, including a fine section with Jormin’s arco bass…
Ferenc Snétberger’s thoroughly distinctive guitar style has been gradually shaped through the absorption and transformation of many influences. Born in 1957 into a very musical family, Ferenc had classical guitar lessons from age 13, and studied jazz guitar in Budapest. Based in Berlin from 1988, he began to harmonize the full range of his guitaristic interests, from Django Reinhardt and Roma music to Brazilian and other Latin American musics via US jazz and European classical tradition from the baroque to contemporary composition. “Alom” on the present disc is an adaptation of an old theme referencing Roma music, while “Orange Tango” and “Renaissance” acknowledge their inspirational sources in their titles. Yet none of these pieces sounds “eclectic”, the diverse sources are integrated organically inside Snétberger’s music, and accessed readily through the guitar. (Throughout Titok, Ferenc plays a guitar hand-built to his specifications by the late German luthier Tom Launhardt.)
Titok is the second ECM album by Ferenc Snétberger. It follows the critically-acclaimed In Concert, recorded at Budapest’s Franz List Academy of Music (“A beautiful, assured performance” All About Jazz).
Anders Jormin and Joey Baron have appeared on many ECM records, but Titok marks the first time they have played together on a session for the label (they have periodically crossed paths in live contexts playing for instance in trio with the late John Taylor). Jormin has made several albums as a leader for ECM, most recently Trees of Light, with singer and fiddler Lena Willemark and koto player Karin Nakagawa. His other discs include Xieyi, In winds, in light, and Ad Lucem. A long-time member of the Bobo Stenson Trio, he also appears on albums with Don Cherry, Charles Lloyd, Tomasz Stanko, Sinikka Langeland and others.
Joey Baron has been John Abercrombie’s drummer of choice for two decades and appears on the Abercrombie Quartet’s newest release Up and Coming. Baron is also currently a member of the trios of Jakob Bro (album: Streams) and Gary Peacock (albums: Now This and the forthcoming Tangents, due this autumn).
Plans for further Snétberger concerts with Jormin and Baron are currently being worked on. Meanwhile, Ferenc also fronts an admirable trio with British bassist Phil Donkin and New York-based Hungarian drummer Ferenc Németh, which recently brought some of the Titok repertoire to Europe’s clubs and concert halls. In October 2017 Ferenc Snétberger will tour in trio with Anders Jormin and Ferenc Németh.

 
Лог создания рипа
Exact Audio Copy V1.0 beta 3 from 29. August 2011
EAC extraction logfile from 11. May 2017, 22:17
Ferenc Snetberger / Titok [ECM 2468]
Used drive : ASUS DRW-24F1ST a Adapter: 0 ID: 0
Read mode : Secure
Utilize accurate stream : Yes
Defeat audio cache : Yes
Make use of C2 pointers : No
Read offset correction : 6
Overread into Lead-In and Lead-Out : No
Fill up missing offset samples with silence : Yes
Delete leading and trailing silent blocks : No
Null samples used in CRC calculations : Yes
Used interface : Native Win32 interface for Win NT & 2000
Gap handling : Appended to previous track
Used output format : User Defined Encoder
Selected bitrate : 128 kBit/s
Quality : High
Add ID3 tag : No
Command line compressor : C:\Program Files (x86)\Exact Audio Copy\FLAC\FLAC.EXE
Additional command line options : -8 -V -T "ARTIST=%artist%" -T "TITLE=%title%" -T "ALBUM=%albumtitle%" -T "DATE=%year%" -T "TRACKNUMBER=%tracknr%" -T "TOTALTRACKS=%numtracks%" -T "GENRE=%genre%" -T "ALBUMARTIST=%albumartist%" -T "ALBUM ARTIST=%albumartist%" -T "COMMENT=EAC Secure Mode, Test & Copy, AccurateRip, FLAC -8" %source%
TOC of the extracted CD
Track | Start | Length | Start sector | End sector
---------------------------------------------------------
1 | 0:00.00 | 2:55.47 | 0 | 13171
2 | 2:55.47 | 2:20.41 | 13172 | 23712
3 | 5:16.13 | 4:04.19 | 23713 | 42031
4 | 9:20.32 | 7:26.70 | 42032 | 75551
5 | 16:47.27 | 5:15.18 | 75552 | 99194
6 | 22:02.45 | 5:27.00 | 99195 | 123719
7 | 27:29.45 | 7:09.62 | 123720 | 155956
8 | 34:39.32 | 5:57.09 | 155957 | 182740
9 | 40:36.41 | 5:28.16 | 182741 | 207356
10 | 46:04.57 | 5:23.25 | 207357 | 231606
11 | 51:28.07 | 5:09.17 | 231607 | 254798
12 | 56:37.24 | 1:56.13 | 254799 | 263511
13 | 58:33.37 | 2:16.17 | 263512 | 273728
Track 1
Filename K:\EAC\01 - Cou Cou.wav
Pre-gap length 0:00:02.00
Peak level 97.9 %
Extraction speed 3.8 X
Track quality 99.9 %
Test CRC 78AC733C
Copy CRC 78AC733C
Track not present in AccurateRip database
Copy OK
Track 2
Filename K:\EAC\02 - Titok.wav
Pre-gap length 0:00:01.65
Peak level 91.7 %
Extraction speed 4.5 X
Track quality 100.0 %
Test CRC 525AA1C8
Copy CRC 525AA1C8
Track not present in AccurateRip database
Copy OK
Track 3
Filename K:\EAC\03 - Kek Kerek.wav
Pre-gap length 0:00:02.31
Peak level 92.3 %
Extraction speed 5.4 X
Track quality 100.0 %
Test CRC 3823C7E9
Copy CRC 3823C7E9
Track not present in AccurateRip database
Copy OK
Track 4
Filename K:\EAC\04 - Rambling.wav
Pre-gap length 0:00:02.28
Peak level 97.6 %
Extraction speed 6.4 X
Track quality 100.0 %
Test CRC FBEC85FE
Copy CRC FBEC85FE
Track not present in AccurateRip database
Copy OK
Track 5
Filename K:\EAC\05 - Orange Tango.wav
Pre-gap length 0:00:04.62
Peak level 83.2 %
Extraction speed 6.7 X
Track quality 100.0 %
Test CRC 17F719CC
Copy CRC 17F719CC
Track not present in AccurateRip database
Copy OK
Track 6
Filename K:\EAC\06 - Fairytale.wav
Pre-gap length 0:00:02.11
Peak level 97.7 %
Extraction speed 6.4 X
Track quality 99.9 %
Test CRC 9C9E143C
Copy CRC 9C9E143C
Track not present in AccurateRip database
Copy OK
Track 7
Filename K:\EAC\07 - Alom.wav
Pre-gap length 0:00:02.61
Peak level 89.1 %
Extraction speed 7.7 X
Track quality 100.0 %
Test CRC F9E6CB2B
Copy CRC F9E6CB2B
Track not present in AccurateRip database
Copy OK
Track 8
Filename K:\EAC\08 - Leolo.wav
Pre-gap length 0:00:04.12
Peak level 95.9 %
Extraction speed 8.0 X
Track quality 100.0 %
Test CRC F71796B1
Copy CRC F71796B1
Track not present in AccurateRip database
Copy OK
Track 9
Filename K:\EAC\09 - Ease.wav
Pre-gap length 0:00:04.01
Peak level 89.1 %
Extraction speed 8.3 X
Track quality 100.0 %
Test CRC D000D6A9
Copy CRC D000D6A9
Track not present in AccurateRip database
Copy OK
Track 10
Filename K:\EAC\10 - Renaissance.wav
Pre-gap length 0:00:05.02
Peak level 97.7 %
Extraction speed 7.7 X
Track quality 99.9 %
Test CRC 896AE14D
Copy CRC 896AE14D
Track not present in AccurateRip database
Copy OK
Track 11
Filename K:\EAC\11 - Clown.wav
Pre-gap length 0:00:08.64
Peak level 89.1 %
Extraction speed 8.7 X
Track quality 100.0 %
Test CRC 511FB45A
Copy CRC 511FB45A
Track not present in AccurateRip database
Copy OK
Track 12
Filename K:\EAC\12 - Rush.wav
Peak level 97.4 %
Extraction speed 6.0 X
Track quality 99.9 %
Test CRC B31EDA97
Copy CRC B31EDA97
Track not present in AccurateRip database
Copy OK
Track 13
Filename K:\EAC\13 - Inference.wav
Pre-gap length 0:00:02.30
Peak level 42.9 %
Extraction speed 7.8 X
Track quality 100.0 %
Test CRC 961CFFC1
Copy CRC 961CFFC1
Track not present in AccurateRip database
Copy OK
None of the tracks are present in the AccurateRip database
No errors occurred
End of status report
==== Log checksum 5695A41D62E78D88261ECE913C771039FF7DEE5C9D84D86D7C20C193DF9F8109 ====
 
Содержание индексной карты (.CUE)
REM GENRE Jazz
REM DATE 2017
REM DISCID AE0E410D
REM COMMENT "ExactAudioCopy v1.0b3"
PERFORMER "Ferenc Snetberger"
TITLE "Titok [ECM 2468]"
FILE "01 - Cou Cou.wav" WAVE
TRACK 01 AUDIO
TITLE "Cou Cou"
PERFORMER "Ferenc Snetberger"
INDEX 01 00:00:00
TRACK 02 AUDIO
TITLE "Titok"
PERFORMER "Ferenc Snetberger"
INDEX 00 02:53:57
FILE "02 - Titok.wav" WAVE
INDEX 01 00:00:00
TRACK 03 AUDIO
TITLE "Kek Kerek"
PERFORMER "Ferenc Snetberger"
INDEX 00 02:18:10
FILE "03 - Kek Kerek.wav" WAVE
INDEX 01 00:00:00
TRACK 04 AUDIO
TITLE "Rambling"
PERFORMER "Ferenc Snetberger"
INDEX 00 04:01:66
FILE "04 - Rambling.wav" WAVE
INDEX 01 00:00:00
TRACK 05 AUDIO
TITLE "Orange Tango"
PERFORMER "Ferenc Snetberger"
INDEX 00 07:22:08
FILE "05 - Orange Tango.wav" WAVE
INDEX 01 00:00:00
TRACK 06 AUDIO
TITLE "Fairytale"
PERFORMER "Ferenc Snetberger"
INDEX 00 05:13:07
FILE "06 - Fairytale.wav" WAVE
INDEX 01 00:00:00
TRACK 07 AUDIO
TITLE "Alom"
PERFORMER "Ferenc Snetberger"
INDEX 00 05:24:14
FILE "07 - Alom.wav" WAVE
INDEX 01 00:00:00
TRACK 08 AUDIO
TITLE "Leolo"
PERFORMER "Ferenc Snetberger"
INDEX 00 07:05:50
FILE "08 - Leolo.wav" WAVE
INDEX 01 00:00:00
TRACK 09 AUDIO
TITLE "Ease"
PERFORMER "Ferenc Snetberger"
INDEX 00 05:53:08
FILE "09 - Ease.wav" WAVE
INDEX 01 00:00:00
TRACK 10 AUDIO
TITLE "Renaissance"
PERFORMER "Ferenc Snetberger"
INDEX 00 05:23:14
FILE "10 - Renaissance.wav" WAVE
INDEX 01 00:00:00
TRACK 11 AUDIO
TITLE "Clown"
PERFORMER "Ferenc Snetberger"
INDEX 00 05:14:36
FILE "11 - Clown.wav" WAVE
INDEX 01 00:00:00
FILE "12 - Rush.wav" WAVE
TRACK 12 AUDIO
TITLE "Rush"
PERFORMER "Ferenc Snetberger"
INDEX 01 00:00:00
TRACK 13 AUDIO
TITLE "Inference"
PERFORMER "Ferenc Snetberger"
INDEX 00 01:53:58
FILE "13 - Inference.wav" WAVE
INDEX 01 00:00:00
00:39
277
Нет комментариев. Ваш будет первым!