Поиск

(World Fusion / Modern Creative / Knitting Factory) Matt Darriau / Paradox Trio - Flying at a Slant - 1997, FLAC (image+.cue), lossless

(World Fusion / Modern Creative / Knitting Factory) Matt Darriau / Paradox Trio - Flying at a Slant - 1997, FLAC (image+.cue), lossless
Треклист:
Matt Darriau / Paradox Trio - Flying at a Slant
Жанр: World Fusion / Modern Creative / Knitting Factory
Год выпуска диска: 1997
Производитель диска: USA (Knitting Factory Works KFW-206)
Аудио кодек: FLAC
Тип рипа: image+.cue
Битрейт аудио: lossless
Продолжительность: 1:05:03
Источник: Собственный рип с оригинального диска
Matt Darriau: woodwinds
Brad Shepik: guitars
Rufus Cappadocia: cello
Seido Salifoski: dumbeks
1. Sand
2. Arabesque
3. Rhythme Bulgare #2
4. Andaluz
5. Flying at a Slant
6. Faux Clarinet
7. Balkan Suite
8. Phase (Mahavishnu)
9. Seido Nein

 
AMG Review
Darriau and his Paradox "Trio" (a quartet in sum) deeply investigate melodies from the Balkan countries and fuse them with jazz sensibilities, a maddeningly attractive combination of unison playing and improvisations, utilizing traditional and Eastern folk instruments. Darriau primarily hits on alto sax or clarinet, Rufus Cappadocia on five-string cello, Brad Shepik on electric guitar (in many instances sounding like an oud), and Seido Salifoski on dumbek and cymbals or small percussion. The leader wrote three of the nine selections. "Arabesque" has dance rhythms, as one might expect; it's in 4/4, with some dark clarinet and use of space between notes and phrases. The triple unison lines between the front liners are startling. "Faux Clarinet" has Darriau chattering on a Hungarian-bought Spanish-origin clarinet, plus Selifoski clattering on dumbek, leading to a juking, almost R&B-ish melodic line. "Phase" comes closer to raga in measures of six beats; Darriau is on alto, with white-hot electric waves steaming off of Shepik's guitar. Selifoski penned "Seido Nein," with Darriau's fever-pitch alto leading to an orgasmic climax, stopping, then forging a sub-melody. Shepik claims credit for two compositions -- the introductory "Sand" really sets the tone for the CD with a 9/8 whirling dervish feel, some overblowing from Darriau's alto, and wonderfully conceived triple unison. "Andaluz" further emphasizes Shepik's oud concept, with ultra-quick lines in varying time signatures and dizzying virtuosity from all four; it lacks no sense of urgency. Cappadocia's solo, one of several present, proves his mastery of this instrument, and his singular-minded sonic concept. Also included is Bela Bartok's "Rhythme Bulgare #2" in 5/4 time, led by cello, with Darriau on the kamal (Bulgarian end-blown wood flute) and Shepik on acoustic Portuguese guitar. They take a stealthy approach before Darriau switches to alto sax; Shepik's solo is accented by splash cymbals. The steady, caravan-like, Cappadocia-written title track features Selifoski on the tupan, a big Bulgarian drum, and Shepik on amplified saz. Darriau picks up the Bulgarian bagpipes, in perfect tune and handled as fluently as his other woodwinds, for the traditional "Balkan Suite," a free, sailing intro leading to dancing 7/8 lines, the kaval in the middle, and alto repeating a concluding melody. This is intricate music to be sure, and when a listener's involvement can equal the great passion exuded by Paradox, the rewards are great. A highly recommended world music hybrid that transcends all previous attempts and amalgamations. ~ Michael G. Nastos, AMG
 
EAC Report
Exact Audio Copy V0.99 prebeta 5 from 4. May 2009
EAC extraction logfile from 7. December 2009, 23:10
Matt Darriau / Paradox Trio / Flying at a Slant
Used drive : TSSTcorpCD/DVDW SH-S182M Adapter: 2 ID: 0
Read mode : Secure
Utilize accurate stream : Yes
Defeat audio cache : Yes
Make use of C2 pointers : No
Read offset correction : 6
Overread into Lead-In and Lead-Out : No
Fill up missing offset samples with silence : Yes
Delete leading and trailing silent blocks : No
Null samples used in CRC calculations : Yes
Used interface : Installed external ASPI interface
Used output format : User Defined Encoder
Selected bitrate : 1024 kBit/s
Quality : High
Add ID3 tag : No
Command line compressor : C:\Program Files\FLAC\flac.exe
Additional command line options : -6 -V -T "ARTIST=%a" -T "TITLE=%t" -T "ALBUM=%g" -T "DATE=%y" -T "TRACKNUMBER=%n" -T "GENRE=%m" -T "COMMENT=EAC FLAC -6" %s
TOC of the extracted CD
Track | Start | Length | Start sector | End sector
---------------------------------------------------------
1 | 0:00.00 | 6:15.62 | 0 | 28186
2 | 6:15.62 | 9:15.23 | 28187 | 69834
3 | 15:31.10 | 2:43.22 | 69835 | 82081
4 | 18:14.32 | 7:52.03 | 82082 | 117484
5 | 26:06.35 | 5:55.65 | 117485 | 144174
6 | 32:02.25 | 5:40.62 | 144175 | 169736
7 | 37:43.12 | 10:42.33 | 169737 | 217919
8 | 48:25.45 | 7:57.52 | 217920 | 253746
9 | 56:23.22 | 8:40.03 | 253747 | 292749
Range status and errors
Selected range
Filename C:\Documents and Settings\Igor\My Documents\My Music\eac\Matt Darriau & Paradox Trio - Flying at a Slant.wav
Peak level 98.8 %
Range quality 100.0 %
Test CRC BF164996
Copy CRC BF164996
Copy OK
No errors occurred
AccurateRip summary
Track 1 not present in database
Track 2 not present in database
Track 3 not present in database
Track 4 not present in database
Track 5 not present in database
Track 6 not present in database
Track 7 not present in database
Track 8 not present in database
Track 9 not present in database
None of the tracks are present in the AccurateRip database
End of status report
Download available for power users only.
11:21
317
Нет комментариев. Ваш будет первым!