Поиск

(World Fusion, Modern Creative, Etnnic) Oregon - Roots in the Sky - 1979, FLAC (tracks+.cue), lossless

(World Fusion, Modern Creative, Etnnic) Oregon - Roots in the Sky - 1979, FLAC (tracks+.cue), lossless
Треклист:
Oregon - Roots in the Sky
Жанр: World Fusion, Modern Creative, Etnnic
Год выпуска диска: 1979
Производитель диска: Discovery, USA
Аудио кодек: FLAC
Тип рипа: tracks+.cue
Битрейт аудио: lossless
Продолжительность: 44:16
Трэклист:
01. June Bug (03:57)
02. Vessel (07:42)
03. Sierra Leone (04:02)
04. Ogden Road (06:29)
05. House of Wax (04:33)
06. Hungry Heart (05:30)
07. Orrington's Escape (00:49)
08. Roots in the Sky (04:21)
09. Longing, so Long (06:51)
Доп. информация:
Собственный рип с оригинального диска.
Сделан вместо релиза со статусом недооформлено.
Сканы внутри.
 
Отчёт EAC
Exact Audio Copy V0.99 prebeta 5 from 4. May 2009
EAC extraction logfile from 14. July 2009, 18:55
Oregon / Roots in the Sky
Used drive : ASUS DRW-20B1ST Adapter: 3 ID: 0
Read mode : Secure
Utilize accurate stream : Yes
Defeat audio cache : Yes
Make use of C2 pointers : No
Read offset correction : 6
Overread into Lead-In and Lead-Out : No
Fill up missing offset samples with silence : Yes
Delete leading and trailing silent blocks : No
Null samples used in CRC calculations : Yes
Used interface : Native Win32 interface for Win NT & 2000
Gap handling : Appended to previous track
Used output format : User Defined Encoder
Selected bitrate : 768 kBit/s
Quality : High
Add ID3 tag : No
Command line compressor : C:\Program Files\Exact Audio Copy\FLAC\FLAC.EXE
Additional command line options : -8 -V -T "ARTIST=%a" -T "TITLE=%t" -T "ALBUM=%g" -T "DATE=%y" -T "TRACKNUMBER=%n" -T "GENRE=%m" -T "COMMENT=EAC FLAC -8" %s
TOC of the extracted CD
Track | Start | Length | Start sector | End sector
---------------------------------------------------------
1 | 0:00.32 | 3:56.43 | 32 | 17774
2 | 3:57.00 | 7:43.05 | 17775 | 52504
3 | 11:40.05 | 4:02.22 | 52505 | 70676
4 | 15:42.27 | 6:29.00 | 70677 | 99851
5 | 22:11.27 | 4:33.25 | 99852 | 120351
6 | 26:44.52 | 5:30.08 | 120352 | 145109
7 | 32:14.60 | 0:49.72 | 145110 | 148856
8 | 33:04.57 | 4:21.18 | 148857 | 168449
9 | 37:26.00 | 6:50.57 | 168450 | 199256
Track 1
Filename I:\Torrent\Раздачи\Orego - Roots in the Sky (1979) [FLAC]\01. June Bug.wav
Pre-gap length 0:00:02.32
Peak level 98.8 %
Track quality 100.0 %
Test CRC 38729DE7
Copy CRC 38729DE7
Accurately ripped (confidence 4) [956ECF60]
Copy OK
Track 2
Filename I:\Torrent\Раздачи\Orego - Roots in the Sky (1979) [FLAC]\02. Vessel.wav
Pre-gap length 0:00:00.48
Peak level 98.8 %
Track quality 100.0 %
Test CRC 73BD1E19
Copy CRC 73BD1E19
Accurately ripped (confidence 4) [381EC103]
Copy OK
Track 3
Filename I:\Torrent\Раздачи\Orego - Roots in the Sky (1979) [FLAC]\03. Sierra Leone.wav
Peak level 73.5 %
Track quality 100.0 %
Test CRC 5FEFED27
Copy CRC 5FEFED27
Accurately ripped (confidence 4) [376CC70F]
Copy OK
Track 4
Filename I:\Torrent\Раздачи\Orego - Roots in the Sky (1979) [FLAC]\04. Ogden Road.wav
Pre-gap length 0:00:00.62
Peak level 94.6 %
Track quality 100.0 %
Test CRC 334DE0B6
Copy CRC 334DE0B6
Accurately ripped (confidence 4) [DA91F3D1]
Copy OK
Track 5
Filename I:\Torrent\Раздачи\Orego - Roots in the Sky (1979) [FLAC]\05. House of Wax.wav
Pre-gap length 0:00:02.22
Peak level 83.6 %
Track quality 100.0 %
Test CRC E5097BCB
Copy CRC E5097BCB
Accurately ripped (confidence 4) [30D6DD14]
Copy OK
Track 6
Filename I:\Torrent\Раздачи\Orego - Roots in the Sky (1979) [FLAC]\06. Hungry Heart.wav
Pre-gap length 0:00:01.65
Peak level 73.7 %
Track quality 100.0 %
Test CRC EDC2D277
Copy CRC EDC2D277
Accurately ripped (confidence 4) [E2617F45]
Copy OK
Track 7
Filename I:\Torrent\Раздачи\Orego - Roots in the Sky (1979) [FLAC]\07. Orrington's Escape.wav
Pre-gap length 0:00:01.73
Peak level 83.5 %
Track quality 100.0 %
Test CRC E91C27B9
Copy CRC E91C27B9
Accurately ripped (confidence 4) [AB57B5EF]
Copy OK
Track 8
Filename I:\Torrent\Раздачи\Orego - Roots in the Sky (1979) [FLAC]\08. Roots in the Sky.wav
Pre-gap length 0:00:01.07
Peak level 91.6 %
Track quality 100.0 %
Test CRC 8BDEB1F7
Copy CRC 8BDEB1F7
Accurately ripped (confidence 4) [C8210DA3]
Copy OK
Track 9
Filename I:\Torrent\Раздачи\Orego - Roots in the Sky (1979) [FLAC]\09. Longing so Long.wav
Pre-gap length 0:00:00.70
Peak level 83.5 %
Track quality 99.9 %
Test CRC 59A5B78B
Copy CRC 59A5B78B
Accurately ripped (confidence 4) [C54A50B8]
Copy OK
All tracks accurately ripped
No errors occurred
End of status report
По всем вопросам пишите личное сообщение пользователю M0p94ok.
07:18
260
Нет комментариев. Ваш будет первым!