Поиск

(World Fusion, Modern Creative) Conjure (Kip Hanrahan) - Music For The Texts of Ishmael Reed - 1986, FLAC (tracks+.cue), lossless

(World Fusion, Modern Creative) Conjure (Kip Hanrahan) - Music For The Texts of Ishmael Reed - 1986, FLAC (tracks+.cue), lossless
Треклист:
♦ Conjure (Kip Hanrahan) - Music For The Texts of Ishmael Reed ♦
Жанр: World Fusion, Modern Creative
Страна-производитель диска: Germany
Год издания: 1986
Издатель (лейбл): American Clavé
Аудиокодек: FLAC (*.flac)
Тип рипа: tracks+.cue
Битрейт аудио: lossless
Продолжительность: 00:49:29
Источник (релизер): alfonsito
Наличие сканов в содержимом раздачи: да
Треклист:
01. Jes' Grew [04:03]
02. The Wardrobe Master of Paradise (1) [05:38]
03. Dualism (1) [02:48]
04. Oakland Blues [04:28]
05. Skydiving [04:16]
06. Judas [02:11]
07. The Wardrobe Master of Paradise (2) [03:56]
08. Betty Ball's Blues [03:43]
09. Untitled II [03:36]
10. Fool-ology (the song) [06:07]
11. From the files of Agent 22 [03:19]
12. Dualism (2) [03:39]
13. Rhythm in Philosphy [01:40]
 
Лог создания рипа
Exact Audio Copy V1.0 beta 3 from 29. August 2011
EAC extraction logfile from 23. June 2013, 11:49
Various Artists / Conjure: Music for the Texts of ISHMAEL REED
Used drive : HL-DT-STDVDRAM GSA-T20L Adapter: 3 ID: 0
Read mode : Secure
Utilize accurate stream : Yes
Defeat audio cache : Yes
Make use of C2 pointers : No
Read offset correction : 667
Overread into Lead-In and Lead-Out : No
Fill up missing offset samples with silence : Yes
Delete leading and trailing silent blocks : No
Null samples used in CRC calculations : Yes
Used interface : Native Win32 interface for Win NT & 2000
Gap handling : Appended to previous track
Used output format : User Defined Encoder
Selected bitrate : 896 kBit/s
Quality : High
Add ID3 tag : No
Command line compressor : C:\Program Files (x86)\FLAC\flac.exe
Additional command line options : -5 -T "Artist=%artist%" -T "Title=%title%" -T "Album=%albumtitle%" -T "Date=%year%" -T "Tracknumber=%tracknr%" -T "Genre=%genre%" %source% -o %dest%
TOC of the extracted CD
Track | Start | Length | Start sector | End sector
---------------------------------------------------------
1 | 0:00.33 | 4:03.62 | 33 | 18319
2 | 4:04.20 | 5:38.25 | 18320 | 43694
3 | 9:42.45 | 2:48.03 | 43695 | 56297
4 | 12:30.48 | 4:28.15 | 56298 | 76412
5 | 16:58.63 | 4:16.50 | 76413 | 95662
6 | 21:15.38 | 2:11.35 | 95663 | 105522
7 | 23:26.73 | 3:56.62 | 105523 | 123284
8 | 27:23.60 | 3:43.03 | 123285 | 140012
9 | 31:06.63 | 3:36.02 | 140013 | 156214
10 | 34:42.65 | 6:07.68 | 156215 | 183807
11 | 40:50.58 | 3:19.65 | 183808 | 198797
12 | 44:10.48 | 3:39.35 | 198798 | 215257
13 | 47:50.08 | 1:40.25 | 215258 | 222782
Track 1
Filename D:\Downloads\Conjure\Various Artists\[1986] Conjure- Music for the Texts of ISHMAEL REED\01. Jes' grew.wav
Pre-gap length 0:00:02.33
Peak level 55.7 %
Extraction speed 2.4 X
Track quality 100.0 %
Test CRC C18B89BA
Copy CRC C18B89BA
Accurately ripped (confidence 2) [824E6B2A] (AR v2)
Copy OK
Track 2
Filename D:\Downloads\Conjure\Various Artists\[1986] Conjure- Music for the Texts of ISHMAEL REED\02. The wardrobe master of paradise (1).wav
Pre-gap length 0:00:00.37
Peak level 63.4 %
Extraction speed 2.6 X
Track quality 99.9 %
Test CRC 6F70A367
Copy CRC 6F70A367
Accurately ripped (confidence 2) [00812D82] (AR v2)
Copy OK
Track 3
Filename D:\Downloads\Conjure\Various Artists\[1986] Conjure- Music for the Texts of ISHMAEL REED\03. Dualism (1).wav
Pre-gap length 0:00:00.62
Peak level 84.9 %
Extraction speed 2.8 X
Track quality 100.0 %
Test CRC 484F8600
Copy CRC 484F8600
Accurately ripped (confidence 2) [A4E08405] (AR v2)
Copy OK
Track 4
Filename D:\Downloads\Conjure\Various Artists\[1986] Conjure- Music for the Texts of ISHMAEL REED\04. Oakland blues.wav
Pre-gap length 0:00:00.65
Peak level 24.5 %
Extraction speed 3.2 X
Track quality 100.0 %
Test CRC A17C0FFD
Copy CRC A17C0FFD
Accurately ripped (confidence 2) [253057E7] (AR v2)
Copy OK
Track 5
Filename D:\Downloads\Conjure\Various Artists\[1986] Conjure- Music for the Texts of ISHMAEL REED\05. Skydiving.wav
Pre-gap length 0:00:00.30
Peak level 73.6 %
Extraction speed 3.4 X
Track quality 100.0 %
Test CRC DF510481
Copy CRC DF510481
Accurately ripped (confidence 2) [2FA92C7C] (AR v2)
Copy OK
Track 6
Filename D:\Downloads\Conjure\Various Artists\[1986] Conjure- Music for the Texts of ISHMAEL REED\06. Judas.wav
Pre-gap length 0:00:01.30
Peak level 14.6 %
Extraction speed 2.6 X
Track quality 99.9 %
Test CRC 3BE51CDB
Copy CRC 3BE51CDB
Accurately ripped (confidence 2) [F38D9E06] (AR v2)
Copy OK
Track 7
Filename D:\Downloads\Conjure\Various Artists\[1986] Conjure- Music for the Texts of ISHMAEL REED\07. The wardrobe master of paradise (2).wav
Pre-gap length 0:00:00.03
Peak level 92.8 %
Extraction speed 3.7 X
Track quality 100.0 %
Test CRC E2D768E1
Copy CRC E2D768E1
Accurately ripped (confidence 2) [133041E7] (AR v2)
Copy OK
Track 8
Filename D:\Downloads\Conjure\Various Artists\[1986] Conjure- Music for the Texts of ISHMAEL REED\08. Betty ball's blues.wav
Pre-gap length 0:00:00.02
Peak level 77.7 %
Extraction speed 3.8 X
Track quality 100.0 %
Test CRC 069DF413
Copy CRC 069DF413
Accurately ripped (confidence 2) [E94261A1] (AR v2)
Copy OK
Track 9
Filename D:\Downloads\Conjure\Various Artists\[1986] Conjure- Music for the Texts of ISHMAEL REED\09. Untitled II.wav
Pre-gap length 0:00:00.55
Peak level 31.1 %
Extraction speed 3.9 X
Track quality 100.0 %
Test CRC 91AF514C
Copy CRC 91AF514C
Accurately ripped (confidence 2) [B4C27C09] (AR v2)
Copy OK
Track 10
Filename D:\Downloads\Conjure\Various Artists\[1986] Conjure- Music for the Texts of ISHMAEL REED\10. Fool-ology (the song).wav
Pre-gap length 0:00:00.57
Peak level 57.7 %
Extraction speed 4.4 X
Track quality 100.0 %
Test CRC 050BB448
Copy CRC 050BB448
Accurately ripped (confidence 2) [12904A77] (AR v2)
Copy OK
Track 11
Filename D:\Downloads\Conjure\Various Artists\[1986] Conjure- Music for the Texts of ISHMAEL REED\11. From the files of agent 22.wav
Pre-gap length 0:00:00.50
Peak level 74.7 %
Extraction speed 3.6 X
Track quality 99.9 %
Test CRC D82C6949
Copy CRC D82C6949
Accurately ripped (confidence 2) [DFEB8F6C] (AR v2)
Copy OK
Track 12
Filename D:\Downloads\Conjure\Various Artists\[1986] Conjure- Music for the Texts of ISHMAEL REED\12. Dualism (2).wav
Pre-gap length 0:00:00.03
Peak level 40.2 %
Extraction speed 3.8 X
Track quality 99.9 %
Test CRC F3D959E5
Copy CRC F3D959E5
Accurately ripped (confidence 2) [00981D25] (AR v2)
Copy OK
Track 13
Filename D:\Downloads\Conjure\Various Artists\[1986] Conjure- Music for the Texts of ISHMAEL REED\13. Rhythm in philosphy.wav
Pre-gap length 0:00:03.50
Peak level 21.6 %
Extraction speed 3.8 X
Track quality 100.0 %
Test CRC 83F1EEB8
Copy CRC 83F1EEB8
Accurately ripped (confidence 2) [424D1A49] (AR v2)
Copy OK
All tracks accurately ripped
No errors occurred
End of status report
 
Содержание индексной карты (.CUE)
REM GENRE Jazz
REM DATE 1986
REM DISCID B20B9A0D
REM COMMENT "ExactAudioCopy v1.0b3"
PERFORMER "Various Artists"
TITLE "Conjure: Music for the Texts of ISHMAEL REED"
FILE "01. Jes' grew.wav" WAVE
TRACK 01 AUDIO
TITLE "Jes' grew"
PERFORMER "Various Artists"
PREGAP 00:00:33
INDEX 01 00:00:00
TRACK 02 AUDIO
TITLE "The wardrobe master of paradise (1)"
PERFORMER "Various Artists"
INDEX 00 04:03:25
FILE "02. The wardrobe master of paradise (1).wav" WAVE
INDEX 01 00:00:00
TRACK 03 AUDIO
TITLE "Dualism (1)"
PERFORMER "Various Artists"
INDEX 00 05:37:38
FILE "03. Dualism (1).wav" WAVE
INDEX 01 00:00:00
TRACK 04 AUDIO
TITLE "Oakland blues"
PERFORMER "Various Artists"
INDEX 00 02:47:13
FILE "04. Oakland blues.wav" WAVE
INDEX 01 00:00:00
TRACK 05 AUDIO
TITLE "Skydiving"
PERFORMER "Various Artists"
INDEX 00 04:27:60
FILE "05. Skydiving.wav" WAVE
INDEX 01 00:00:00
TRACK 06 AUDIO
TITLE "Judas"
PERFORMER "Various Artists"
INDEX 00 04:15:20
FILE "06. Judas.wav" WAVE
INDEX 01 00:00:00
TRACK 07 AUDIO
TITLE "The wardrobe master of paradise (2)"
PERFORMER "Various Artists"
INDEX 00 02:11:32
FILE "07. The wardrobe master of paradise (2).wav" WAVE
INDEX 01 00:00:00
TRACK 08 AUDIO
TITLE "Betty ball's blues"
PERFORMER "Various Artists"
INDEX 00 03:56:60
FILE "08. Betty ball's blues.wav" WAVE
INDEX 01 00:00:00
TRACK 09 AUDIO
TITLE "Untitled II"
PERFORMER "Various Artists"
INDEX 00 03:42:23
FILE "09. Untitled II.wav" WAVE
INDEX 01 00:00:00
TRACK 10 AUDIO
TITLE "Fool-ology (the song)"
PERFORMER "Various Artists"
INDEX 00 03:35:20
FILE "10. Fool-ology (the song).wav" WAVE
INDEX 01 00:00:00
TRACK 11 AUDIO
TITLE "From the files of agent 22"
PERFORMER "Various Artists"
INDEX 00 06:07:18
FILE "11. From the files of agent 22.wav" WAVE
INDEX 01 00:00:00
TRACK 12 AUDIO
TITLE "Dualism (2)"
PERFORMER "Various Artists"
INDEX 00 03:19:62
FILE "12. Dualism (2).wav" WAVE
INDEX 01 00:00:00
TRACK 13 AUDIO
TITLE "Rhythm in philosphy"
PERFORMER "Various Artists"
INDEX 00 03:35:60
FILE "13. Rhythm in philosphy.wav" WAVE
INDEX 01 00:00:00
12:44
216
Нет комментариев. Ваш будет первым!