Поиск

(World Fusion, Latin Jazz, Vocal Jazz) [CD] Kat Parra - Birds in Flight - 2007, FLAC (image+.cue), lossless

(World Fusion, Latin Jazz, Vocal Jazz) [CD] Kat Parra - Birds in Flight - 2007, FLAC (image+.cue), lossless
Треклист:
♦ Kat Parra - Birds in Flight ♦
Жанр: World Fusion, Latin Jazz, Vocal Jazz
Носитель: CD
Год издания: 2007
Издатель (лейбл): Patois Recors
Номер по каталогу: PRCD 003
Аудиокодек: FLAC (*.flac)
Тип рипа: image+.cue
Битрейт аудио: lossless
Продолжительность: 00:51:29
Источник (релизер): dreadbull
Наличие сканов в содержимом раздачи: да
Треклист:
01. Mais Que Nada [05:39]
02. Dame La Llave [04:39]
03. Softly As In A Morning Sunrise [04:42]
04. Alfonsina Y El Mar [06:44]
05. Birds In Flight [05:11]
06. Caravan [06:07]
07. Oleo De Una Mujer Con Sombrero [04:54]
08. These Old Feelings [03:55]
09. Kuando El Rey Nimrod [05:50]
10. Quizas Porque [03:44]
 
Лог создания рипа
Exact Audio Copy V1.0 beta 3 from 29. August 2011
EAC extraction logfile from 29. December 2013, 0:22
Kat Parra / Birds In Flight
Used drive : ASUS DRW-22B2L Adapter: 0 ID: 0
Read mode : Secure
Utilize accurate stream : Yes
Defeat audio cache : Yes
Make use of C2 pointers : No
Read offset correction : 6
Overread into Lead-In and Lead-Out : No
Fill up missing offset samples with silence : Yes
Delete leading and trailing silent blocks : No
Null samples used in CRC calculations : Yes
Used interface : Native Win32 interface for Win NT & 2000
Used output format : User Defined Encoder
Selected bitrate : 128 kBit/s
Quality : High
Add ID3 tag : Yes
Command line compressor : C:\Program Files (x86)\FLAC\flac.exe
Additional command line options : -8 -V -T "ARTIST=%artist%" -T "TITLE=%title%" -T "ALBUM=%albumtitle%" -T "DATE=%year%" -T "TRACKNUMBER=%tracknr%" -T "GENRE=%genre%" -T "PERFORMER=%albuminterpret%" -T "COMPOSER=%composer%" %haslyrics%--tag-from-file=LYRICS="%lyricsfile%"%haslyrics% -T "ALBUMARTIST=%albumartist%" -T "DISCNUMBER=%cdnumber%" -T "TOTALDISCS=%totalcds%" -T "TOTALTRACKS=%numtracks%" -T "COMMENT=%comment%" %source% -o %dest%
TOC of the extracted CD
Track | Start | Length | Start sector | End sector
---------------------------------------------------------
1 | 0:00.00 | 5:39.24 | 0 | 25448
2 | 5:39.24 | 4:39.57 | 25449 | 46430
3 | 10:19.06 | 4:42.69 | 46431 | 67649
4 | 15:02.00 | 6:44.21 | 67650 | 97970
5 | 21:46.21 | 5:11.19 | 97971 | 121314
6 | 26:57.40 | 6:07.59 | 121315 | 148898
7 | 33:05.24 | 4:54.35 | 148899 | 170983
8 | 37:59.59 | 3:55.58 | 170984 | 188666
9 | 41:55.42 | 5:50.11 | 188667 | 214927
10 | 47:45.53 | 3:44.21 | 214928 | 231748
Range status and errors
Selected range
Filename G:\Donkey Files\Kat Parra - Birds in Flight (2007, Patois) [eac-flac-scans] byDrBull\Kat Parra - Birds In Flight.wav
Peak level 98.8 %
Extraction speed 3.1 X
Range quality 100.0 %
Test CRC 0DE05FF4
Copy CRC 0DE05FF4
Copy OK
No errors occurred
AccurateRip summary
Track 1 not present in database
Track 2 not present in database
Track 3 not present in database
Track 4 not present in database
Track 5 not present in database
Track 6 not present in database
Track 7 not present in database
Track 8 not present in database
Track 9 not present in database
Track 10 not present in database
None of the tracks are present in the AccurateRip database
End of status report
---- CUETools DB Plugin V2.1.3
[CTDB TOCID: iNkRnh0BFMIArhV1uE1Gi7oW_i0-] disk not present in database, Submit result: iNkRnh0BFMIArhV1uE1Gi7oW_i0- has been uploaded
 
Содержание индексной карты (.CUE)
REM GENRE Latin
REM DATE 2006
REM DISCID 890C110A
REM COMMENT "ExactAudioCopy v1.0b3"
PERFORMER "Kat Parra"
TITLE "Birds In Flight"
FILE "Kat Parra - Birds In Flight.flac" WAVE
TRACK 01 AUDIO
TITLE "Mais Que Nada"
PERFORMER "Kat Parra"
INDEX 01 00:00:00
TRACK 02 AUDIO
TITLE "Dame La Llave"
PERFORMER "Kat Parra"
INDEX 00 05:38:21
INDEX 01 05:39:24
TRACK 03 AUDIO
TITLE "Softly As In A Morning Sunrise"
PERFORMER "Kat Parra"
INDEX 00 10:17:49
INDEX 01 10:19:06
TRACK 04 AUDIO
TITLE "Alfonsina Y El Mar"
PERFORMER "Kat Parra"
INDEX 00 15:00:17
INDEX 01 15:02:00
TRACK 05 AUDIO
TITLE "Birds In Flight"
PERFORMER "Kat Parra"
INDEX 00 21:44:69
INDEX 01 21:46:21
TRACK 06 AUDIO
TITLE "Caravan"
PERFORMER "Kat Parra"
INDEX 00 26:56:31
INDEX 01 26:57:40
TRACK 07 AUDIO
TITLE "Oleo De Una Mujer Con Sombrero"
PERFORMER "Kat Parra"
INDEX 00 33:04:15
INDEX 01 33:05:24
TRACK 08 AUDIO
TITLE "These Old Feelings"
PERFORMER "Kat Parra"
INDEX 00 37:58:44
INDEX 01 37:59:59
TRACK 09 AUDIO
TITLE "Kuando El Rey Nimrod"
PERFORMER "Kat Parra"
INDEX 01 41:55:42
TRACK 10 AUDIO
TITLE "Quizas Porque"
PERFORMER "Kat Parra"
INDEX 00 47:44:15
INDEX 01 47:45:53
 
Состав
Kat Parra - lead vocals;
Murray Low - piano (#1-9), arranger (#4,7,9);
Wayne Wallace - trombone (#1,5), arranger (#1,3-8,10);
John Calloway - arranger (#2);
Masaru Koga - flutes & saxophones (#1-7,10);
John Worley - trumpet & flugelhorn (#1,5);
Anthony Blea - violin (#1-4,7);
Lila Sklar - violin (#6,9);
Peter Barshay - bass (#1-5,7,8,10);
Renata Bratt - cello (#6,9);
Paul van Wageningen - drum set (#1,4-10);
Michael Spiro - percussion (#1-6,9,10);
Michaelle Goerlitz - percussion (#1-5,7,8);
Ravi Gutala - tablas (#6);
Katja Cooper - dumbek & rik (#6,9);
Rick Rangel - coro (#2);
Orlando Torriente - coro (#3,5);
Pat Parra - rap vocals & coro (#1).
14:27
389
Нет комментариев. Ваш будет первым!