Поиск

(World Fusion, Latin Jazz, Saxophone Jazz) Victor Assis Brasil - Jobim - 2003, FLAC (image+.cue), lossless

Треклист:
Victor Assis Brasil - Jobim
Жанр: World Fusion, Latin Jazz, Saxophone Jazz
Год издания диска: 2003
Издатель (лейбл): ATRACAO
Номер по каталогу: ATR32006
Страна: Rio de Janeiro, Brazil
Аудиокодек: FLAC (*.flac)
Тип рипа: image+.cue
Битрейт аудио: lossless
Продолжительность: 00:37:13
Источник (релизер): seogcg
Наличие сканов в содержимом раздачи: да
Sax Alto e Soprano - Victor Assis Brasil
Piano e Órgão (organ) - Don Salvador
Guitarra (Assobio em "Bonita") (guitar / whistle) - Hélio Delmiro
Baixo (bass) - Edison Lobo
Bateria (drums) - Edison Machado

01. Wave
(Antônio Carlos Jobim)
02. Só tinha de ser com você
(Antônio Carlos Jobim e Aloysio de Oliveira)
03. Bonita
(Antônio Carlos Jobim)
04. Dindi
(Antônio Carlos Jobim e Aloysio de Oliveira)
05. Quartiniana
(Victor Assis Brasil)

Victor Assis Brasil died in Rio De Janeiro on 14 April 1981

 
Лог создания рипа
EAC extraction logfile from 15. December 2007, 13:06 for CD
Victor Assis Brasil / Jobim
Used drive : HL-DT-STRW/DVD GCC-4520B Adapter: 0 ID: 1
Read mode : Secure with NO C2, accurate stream, disable cache
Read offset correction : 6
Overread into Lead-In and Lead-Out : No
Used output format : Internal WAV Routines
44.100 Hz; 16 Bit; Stereo
Other options :
Fill up missing offset samples with silence : Yes
Delete leading and trailing silent blocks : No
Installed external ASPI interface
Range status and errors
Selected range
Filename D:\INCOMING\_RELEASES\Victor Assis Brasil - Jobim.wav
Peak level 95.5 %
Range quality 99.9 %
CRC EB07AB87
Copy OK
No errors occured
End of status report
-------------------------------------------------------
flac 1.2.1, Copyright (C) 2000,2001,2002,2003,2004,2005,2006,2007 Josh Coalson
flac comes with ABSOLUTELY NO WARRANTY. This is free software, and you are
welcome to redistribute it under certain conditions. Type `flac' for details.
Victor Assis Brasil - Jobim.wav: Verify OK, wrote 233964464 bytes, ratio=0,594
Tag - Automatic Tag from filename
Copyright (c) 2002-2003 Case. Minor additions by Neil Popham, 2004-2007
Version 2.0.52, Compiled 2007-05-04
D:\INCOMING\_RELEASES\Victor Assis Brasil - Jobim.flac
Format: FLAC
Details: 44100 Hz Stereo, 838 kbps, playtime 37:13
Tags: FLAC, Generated from name
Title: Jobim
Artist: Victor Assis Brasil
Album: Jobim [1970][ATRACAO][JAZZ][EAC FLAC SCAN]by seogcg
Year:
Track:
Genre:
Comment: Encoded by FLAC v1.1.4a with FLAC Frontend v1.7.1
REPLAYGAIN_REFERENCE_LOUDNESS=89.0 dB
REPLAYGAIN_TRACK_GAIN=-7.09 dB
REPLAYGAIN_TRACK_PEAK=0.95501709
REPLAYGAIN_ALBUM_GAIN=-7.09 dB
REPLAYGAIN_ALBUM_PEAK=0.95501709
FLAC tag written.
 
Содержание индексной карты (.CUE)
REM GENRE Jazz
REM DATE 1970
REM DISCID 3908B905
REM COMMENT "ExactAudioCopy v0.95b4"
PERFORMER "Victor Assis Brasil"
TITLE "Jobim"
FILE "Victor Assis Brasil - Jobim.flac" WAVE
TRACK 01 AUDIO
TITLE "Wave"
PERFORMER "Victor Assis Brasil"
ISRC 0@4002300000
INDEX 01 00:00:00
TRACK 02 AUDIO
TITLE "Sу tinha de ser com vocк"
PERFORMER "Victor Assis Brasil"
ISRC 0P4003900142
INDEX 00 14:21:01
INDEX 01 14:24:05
TRACK 03 AUDIO
TITLE "Bonita"
PERFORMER "Victor Assis Brasil"
ISRC 0`4000400182
INDEX 00 18:23:38
INDEX 01 18:26:42
TRACK 04 AUDIO
TITLE "Dindi"
PERFORMER "Victor Assis Brasil"
ISRC 104003800270
INDEX 00 26:58:68
INDEX 01 27:01:72
TRACK 05 AUDIO
TITLE "Quartiniana"
PERFORMER "Victor Assis Brasil"
ISRC 1@4000900321
INDEX 00 32:05:31
INDEX 01 32:08:35
22:35
219
Нет комментариев. Ваш будет первым!