Поиск

(World Fusion, Latin Jazz, Saxophone Jazz) Luiz Eca & Victor Assis Brasil - No Museu de Arte Moderna - 2006, FLAC (image+.cue), lossless

Треклист:
Luiz Eca & Victor Assis Brasil / No Museu de Arte Moderna
Жанр: World Fusion, Latin Jazz, Saxophone Jazz
Страна-производитель диска: Brazil
Год издания диска: 2006
Страна: Brazil
Аудиокодек: FLAC (*.flac)
Тип рипа: image+.cue
Битрейт аудио: lossless
Продолжительность: 01:14:41
Источник (релизер): rpt
Наличие сканов в содержимом раздачи: да

01. The Dolphin (Luiz Eþa)
02. Na Baixa do Sapateiro (Ary Barroso)
03. Fotografia (Tom Jobim)
04. You must believe in spring (Michel Legrand)
05. Samba de uma nota só (Newton Mendonça, Tom Jobim)
06. Hi-lili hilo (Bronislaw Kaper, Helen Deutch)
07. Insensatez (Tom Jobim, Vinicius de Moraes)
08. O cantador (Nelson Motta, Dori Caymmi)
09. The man I love (George Gershwin)
10. Maracangalha (Dorival Caymmi)
11. Travessia (Milton Nascimento, Fernando Brant)
 
Лог создания рипа
Exact Audio Copy V1.0 beta 1 from 15. November 2010
EAC extraction logfile from 15. March 2011, 1:46
Luiz Eça & Victor Assis Brasil / No Museu de Arte Moderna
Used drive : HL-DT-STDVD-RAM GH22NS30 Adapter: 5 ID: 0
Read mode : Secure
Utilize accurate stream : Yes
Defeat audio cache : Yes
Make use of C2 pointers : No
Read offset correction : 102
Overread into Lead-In and Lead-Out : No
Fill up missing offset samples with silence : Yes
Delete leading and trailing silent blocks : No
Null samples used in CRC calculations : Yes
Used interface : Installed external ASPI interface
Used output format : Internal WAV Routines
Sample format : 44.100 Hz; 16 Bit; Stereo
TOC of the extracted CD
Track | Start | Length | Start sector | End sector
---------------------------------------------------------
1 | 0:00.33 | 8:48.22 | 33 | 39654
2 | 8:48.55 | 9:16.53 | 39655 | 81407
3 | 18:05.33 | 7:20.02 | 81408 | 114409
4 | 25:25.35 | 7:52.63 | 114410 | 149872
5 | 33:18.23 | 4:04.02 | 149873 | 168174
6 | 37:22.25 | 4:41.43 | 168175 | 189292
7 | 42:03.68 | 6:25.47 | 189293 | 218214
8 | 48:29.40 | 7:15.20 | 218215 | 250859
9 | 55:44.60 | 8:17.55 | 250860 | 288189
10 | 64:02.40 | 4:04.65 | 288190 | 306554
11 | 68:07.30 | 6:33.40 | 306555 | 336069
Range status and errors
Selected range
Filename D:\EAC\Luiz Eca & Victor Assis Brasil - No Museu de Arte Moderna\Luiz Eca & Victor Assis Brasil - No Museu de Arte Moderna.wav
Peak level 85.6 %
Extraction speed 0.2 X
Range quality 100.0 %
Test CRC 25514F22
Copy CRC 25514F22
Copy OK
No errors occurred
AccurateRip summary
Track 1 not present in database
Track 2 not present in database
Track 3 not present in database
Track 4 not present in database
Track 5 not present in database
Track 6 not present in database
Track 7 not present in database
Track 8 not present in database
Track 9 not present in database
Track 10 not present in database
Track 11 not present in database
None of the tracks are present in the AccurateRip database
End of status report
==== Log checksum 15E27423B0AB60060053470DDF3248E78A63C379FB063BAB172187C0FA45C29C ====
 
Содержание индексной карты (.CUE)
REM GENRE Jazz
REM DATE 1993
REM DISCID 8A11800B
REM COMMENT "ExactAudioCopy v1.0b1"
PERFORMER "Luiz Eзa & Victor Assis Brasil"
TITLE "No Museu de Arte Moderna"
FILE "Luiz Eca & Victor Assis Brasil - No Museu de Arte Moderna.flac" WAVE
TRACK 01 AUDIO
TITLE "The Dolphin"
PERFORMER "Luiz Eзa & Victor Assis Brasil"
INDEX 00 00:00:00
INDEX 01 00:00:33
TRACK 02 AUDIO
TITLE "Na Baixa do Sapateiro"
PERFORMER "Luiz Eзa & Victor Assis Brasil"
INDEX 01 08:48:55
TRACK 03 AUDIO
TITLE "Fotografia"
PERFORMER "Luiz Eзa & Victor Assis Brasil"
INDEX 01 18:05:33
TRACK 04 AUDIO
TITLE "You Must Believe in Spring"
PERFORMER "Luiz Eзa & Victor Assis Brasil"
INDEX 01 25:25:35
TRACK 05 AUDIO
TITLE "Samba de Uma Nota Sу"
PERFORMER "Luiz Eзa & Victor Assis Brasil"
INDEX 01 33:18:23
TRACK 06 AUDIO
TITLE "Hi-Lili Hilф"
PERFORMER "Luiz Eзa & Victor Assis Brasil"
INDEX 01 37:22:25
TRACK 07 AUDIO
TITLE "Insensatez"
PERFORMER "Luiz Eзa & Victor Assis Brasil"
INDEX 01 42:03:68
TRACK 08 AUDIO
TITLE "O Cantador"
PERFORMER "Luiz Eзa & Victor Assis Brasil"
INDEX 01 48:29:40
TRACK 09 AUDIO
TITLE "The Man I Love"
PERFORMER "Luiz Eзa & Victor Assis Brasil"
INDEX 01 55:44:60
TRACK 10 AUDIO
TITLE "Maracangalha"
PERFORMER "Luiz Eзa & Victor Assis Brasil"
INDEX 01 64:02:40
TRACK 11 AUDIO
TITLE "Travessia"
PERFORMER "Luiz Eзa & Victor Assis Brasil"
INDEX 01 68:07:30
21:32
237
Нет комментариев. Ваш будет первым!