Поиск

(World Fusion, Latin Jazz) Ray Barretto - Soy Dichoso - 2006, APE (image+.cue), lossless

(World Fusion, Latin Jazz) Ray Barretto - Soy Dichoso - 2006, APE (image+.cue), lossless
Треклист:
Ray Barretto - Soy Dichoso

Жанр: World Fusion, Latin Jazz
Страна-производитель диска: USA
Год издания диска: 2006
Издатель (лейбл): Fania
Номер по каталогу: 773 130 173-2
Аудиокодек: APE (*.ape)
Тип рипа: image+.cue
Битрейт аудио: lossless
Продолжительность: 00:39:52
Источник (релизер): (dreadbull
Наличие сканов в содержимом раздачи: да
1. Soy Dichoso /Gonzalez/ 5:01
2. Lo Que Me Pasó en La Guagua /Guerra/ 5:07
3. Los Ejes de Mi Carreta /Risso, Yupanqui/ 5:18
4. El Entierro del Feo /D.R., Public Domain/ 4:55
5. Tal Vez /D.R./ 5:16
6. Café Con Leche /D.R., Public Domain/ 4:43
7. Flor de Los Lindos Campos /Alonso/ 4:43
8. Diganme La Hora /Barretto/ 4:46
 
Лог создания рипа
EAC extraction logfile from 9. May 2009, 6:45 for CD
Ray Barretto: / Soy Dichoso
Used drive : PLEXTOR DVDR PX-750A Adapter: 0 ID: 1
Read mode : Secure with NO C2, accurate stream, disable cache
Read offset correction : 102
Overread into Lead-In and Lead-Out : No
Used output format : Internal WAV Routines
44.100 Hz; 16 Bit; Stereo
Other options :
Fill up missing offset samples with silence : Yes
Delete leading and trailing silent blocks : No
Installed external ASPI interface
Range status and errors
Selected range
Filename E:\Donkey Files\Ray Barretto - Soy Dichoso\CDImage.wav
Peak level 99.4 %
Range quality 100.0 %
CRC BD19CBEA
Copy OK
No errors occured
End of status report
 
Содержание индексной карты (.CUE)
PERFORMER "Ray Barretto:"
TITLE "Soy Dichoso"
FILE "CDImage.wav" WAVE
TRACK 01 AUDIO
TITLE "Soy dichoso"
PERFORMER "Ray Barretto:"
ISRC USDBB0608410
FLAGS DCP
INDEX 01 00:00:00
TRACK 02 AUDIO
TITLE "Lo que me paso en la guagua"
PERFORMER "Ray Barretto:"
ISRC USDBB0609180
FLAGS DCP
INDEX 00 04:59:72
INDEX 01 05:01:72
TRACK 03 AUDIO
TITLE "Los ejes de mi carreta"
PERFORMER "Ray Barretto:"
ISRC USDBB0609190
FLAGS DCP
INDEX 00 10:07:20
INDEX 01 10:09:20
TRACK 04 AUDIO
TITLE "El entierro del feo"
PERFORMER "Ray Barretto:"
ISRC USDBB0607333
FLAGS DCP
INDEX 00 15:25:28
INDEX 01 15:27:28
TRACK 05 AUDIO
TITLE "Tal vez"
PERFORMER "Ray Barretto:"
ISRC USDBB0609548
FLAGS DCP
INDEX 00 20:20:46
INDEX 01 20:22:46
TRACK 06 AUDIO
TITLE "Cafe con leche"
PERFORMER "Ray Barretto:"
ISRC USDBB0607085
FLAGS DCP
INDEX 00 25:36:50
INDEX 01 25:38:50
TRACK 07 AUDIO
TITLE "Flor de los lindos campos"
PERFORMER "Ray Barretto:"
ISRC USDBB0601419
FLAGS DCP
INDEX 00 30:19:56
INDEX 01 30:21:56
TRACK 08 AUDIO
TITLE "Diganme la hora"
PERFORMER "Ray Barretto:"
ISRC USDBB0607263
FLAGS DCP
INDEX 00 35:03:55
INDEX 01 35:05:55
 
Состав
Ray Barretto (congas)
Tito González (vocals, güiro, maracas, background vocals);
Felo Barrios, Adalberto Santiago, Saba, Tito Allen (background vocals);
#1,4,6-8:
Héctor "Bomberito" Zarzuela, Angel Fernández, Steve Gluzband (trumpet);
Jimmy Bosch (trombone);
Ricky Gonzalez (piano);
Salvador Cuevas (Ampeg baby bass);
Jimmy Delgado (timbales);
Carlos Soto (bongo, cencerro).
#2,3,5:
José Ite Erez, Christ Anderson, Tim Ouimette (trumpet)
Barry Olsen (trombone)
Héctor Martignón (piano)
Jaime Moreno ( bass)
Jorge González (bongos)
Jeffrey López (timbales)
21:40
297
Нет комментариев. Ваш будет первым!