Поиск

(World Fusion, Latin Jazz) Gato Barbieri - Gato Barbieri's Finest Hour - 2000, FLAC (tracks+.cue), lossless

Треклист:

Gato Barbieri - Gato Barbieri's Finest Hour
Жанр: World Fusion, Latin Jazz
Страна-производитель диска: U.K.
Год издания диска: 2000
Издатель (лейбл): Verve
Номер по каталогу: 490 671-2
Страна: Rosario, Argentina
Аудиокодек: FLAC (*.flac)
Тип рипа: tracks+.cue
Битрейт аудио: lossless
Продолжительность: 01:01:41
Источник (релизер): Asturiano
Наличие сканов в содержимом раздачи: нет

Gato Barbieri (tenor saxophone, guiro, percussion)
Chico O'Farrill (conductor)
Luther Waters, Oren Waters, Maxine Willard (vocals)
Jon Faddis, Lew Soloff, Marvin Stamm, Randy Brecker (trumpet, flugelhorn)
Howard Johnson (flugelhorn, tuba, bass clarinet)
Ray Alonge, Peter Gordon (French horn)
Buddy Morrow (trombone)
Dino Saluzzi (bandoneon)
Osvaldo Bellingieri (piano)
Richard Tee (keyboards)
Ian Underwood, Don Grolnick (synthesizer)
Carlos Santana, David Spinozza, Joe Beck, Eric Gale (guitar)
Ron Carter (bass)
Billy Cobham, Grady Tate, Lenny White (drums)
Ray Mantilla, Paulinho Da Costa (percussion)

01. Cuando Vuelva a tu lado (What a difference a day makes) [05:27]
02. Nunca Mas [05:25]
03. To Be Continued [02:28]
04. Ngiculela - Es Una Historia - I Am Singing [05:45]
05. Europa (Earth's Cry Heaven's Smile) [04:19]
06. La Podrida [04:46]
07. Latin Lady [08:25]
08. Marissea [07:39]
09. Speak Low [06:32]
10. Bahia [10:51]

 
Лог создания рипа
Exact Audio Copy V1.0 beta 3 from 29. August 2011
EAC extraction logfile from 1. February 2012, 19:09
Gato Barbieri / Finest Hour
Used drive : HL-DT-STDVDRAM GSA-H12L Adapter: 0 ID: 1
Read mode : Secure
Utilize accurate stream : Yes
Defeat audio cache : Yes
Make use of C2 pointers : No
Read offset correction : 667
Overread into Lead-In and Lead-Out : No
Fill up missing offset samples with silence : Yes
Delete leading and trailing silent blocks : No
Null samples used in CRC calculations : Yes
Used interface : Native Win32 interface for Win NT & 2000
Gap handling : Appended to previous track
Used output format : User Defined Encoder
Selected bitrate : 768 kBit/s
Quality : High
Add ID3 tag : No
Command line compressor : E:\Musica\Exact Audio Copy\FLAC\FLAC.EXE
Additional command line options : -8 -V -T "ARTIST=%artist%" -T "TITLE=%title%" -T "ALBUM=%albumtitle%" -T "DATE=%year%" -T "TRACKNUMBER=%tracknr%" -T "GENRE=%genre%" -T "PERFORMER=%albuminterpret%" -T "COMPOSER=%composer%" %haslyrics%--tag-from-file=LYRICS="%lyricsfile%"%haslyrics% -T "ALBUMARTIST=%albumartist%" -T "DISCNUMBER=%cdnumber%" -T "TOTALDISCS=%totalcds%" -T "TOTALTRACKS=%numtracks%" -T "COMMENT=%comment%" %source% -o %dest%
TOC of the extracted CD
Track | Start | Length | Start sector | End sector
---------------------------------------------------------
1 | 0:00.00 | 5:30.53 | 0 | 24802
2 | 5:30.53 | 5:25.65 | 24803 | 49242
3 | 10:56.43 | 2:30.55 | 49243 | 60547
4 | 13:27.23 | 5:47.30 | 60548 | 86602
5 | 19:14.53 | 4:20.72 | 86603 | 106174
6 | 23:35.50 | 4:49.38 | 106175 | 127887
7 | 28:25.13 | 8:27.62 | 127888 | 165974
8 | 36:53.00 | 7:41.73 | 165975 | 200622
9 | 44:34.73 | 6:33.70 | 200623 | 230167
10 | 51:08.68 | 10:51.70 | 230168 | 279062
Track 1
Filename E:\Musica\Flac\Gato Barbieri - Finest Hour\01 - Cuando Vuelva a tu lado (What a difference a day makes).wav
Pre-gap length 0:00:02.00
Peak level 88.8 %
Extraction speed 2.9 X
Track quality 100.0 %
Test CRC BD3055D5
Copy CRC BD3055D5
Track not present in AccurateRip database
Copy OK
Track 2
Filename E:\Musica\Flac\Gato Barbieri - Finest Hour\02 - Nunca Mas.wav
Pre-gap length 0:00:02.73
Peak level 94.5 %
Extraction speed 3.2 X
Track quality 100.0 %
Test CRC 46803200
Copy CRC 46803200
Track not present in AccurateRip database
Copy OK
Track 3
Filename E:\Musica\Flac\Gato Barbieri - Finest Hour\03 - To Be Continued.wav
Peak level 100.0 %
Extraction speed 2.6 X
Track quality 99.9 %
Test CRC DCC96E1E
Copy CRC DCC96E1E
Track not present in AccurateRip database
Copy OK
Track 4
Filename E:\Musica\Flac\Gato Barbieri - Finest Hour\04 - Ngiculela - Es Una Historia - I Am Singing.wav
Pre-gap length 0:00:02.73
Peak level 88.1 %
Extraction speed 3.8 X
Track quality 100.0 %
Test CRC 7E14F8C2
Copy CRC 7E14F8C2
Track not present in AccurateRip database
Copy OK
Track 5
Filename E:\Musica\Flac\Gato Barbieri - Finest Hour\05 - Europa (Earth's Cry Heaven's Smile).wav
Pre-gap length 0:00:02.24
Peak level 71.7 %
Extraction speed 3.5 X
Track quality 99.9 %
Test CRC F87257EF
Copy CRC F87257EF
Track not present in AccurateRip database
Copy OK
Track 6
Filename E:\Musica\Flac\Gato Barbieri - Finest Hour\06 - La Podrida.wav
Pre-gap length 0:00:01.24
Peak level 84.9 %
Extraction speed 3.8 X
Track quality 99.9 %
Test CRC 7CB924F5
Copy CRC 7CB924F5
Track not present in AccurateRip database
Copy OK
Track 7
Filename E:\Musica\Flac\Gato Barbieri - Finest Hour\07 - Latin Lady.wav
Pre-gap length 0:00:02.73
Peak level 81.3 %
Extraction speed 4.8 X
Track quality 100.0 %
Test CRC E12B8CC3
Copy CRC E12B8CC3
Track not present in AccurateRip database
Copy OK
Track 8
Filename E:\Musica\Flac\Gato Barbieri - Finest Hour\08 - Marissea.wav
Pre-gap length 0:00:02.73
Peak level 87.0 %
Extraction speed 5.2 X
Track quality 100.0 %
Test CRC B9B19F56
Copy CRC B9B19F56
Track not present in AccurateRip database
Copy OK
Track 9
Filename E:\Musica\Flac\Gato Barbieri - Finest Hour\09 - Speak Low.wav
Pre-gap length 0:00:02.73
Peak level 82.2 %
Extraction speed 5.3 X
Track quality 100.0 %
Test CRC A35FF07E
Copy CRC A35FF07E
Track not present in AccurateRip database
Copy OK
Track 10
Filename E:\Musica\Flac\Gato Barbieri - Finest Hour\10 - Bahia.wav
Pre-gap length 0:00:01.73
Peak level 100.0 %
Extraction speed 6.0 X
Track quality 100.0 %
Test CRC 20DB736A
Copy CRC 20DB736A
Track not present in AccurateRip database
Copy OK
None of the tracks are present in the AccurateRip database
No errors occurred
End of status report
---- CUETools DB Plugin V2.1.3
[CTDB TOCID: Fu9INyIvTTGhE3JesOko.nnaYBw-] disk not present in database, Submit result: Fu9INyIvTTGhE3JesOko.nnaYBw- has been uploaded
==== Log checksum CD3B880E17963432B2D7A85B78367689E068763CDE933D8CE59E063CB4CAF60D ====
 
Содержание индексной карты (.CUE)
REM GENRE Jazz
REM DATE 2000
REM DISCID 800E880A
REM COMMENT "ExactAudioCopy v1.0b3"
FILE "01 - Cuando Vuelva a tu lado (What a difference a day makes).wav" WAVE
TRACK 01 AUDIO
INDEX 01 00:00:00
TRACK 02 AUDIO
INDEX 00 05:27:73
FILE "02 - Nunca Mas.wav" WAVE
INDEX 01 00:00:00
FILE "03 - To Be Continued.wav" WAVE
TRACK 03 AUDIO
INDEX 01 00:00:00
TRACK 04 AUDIO
INDEX 00 02:28:00
FILE "04 - Ngiculela - Es Una Historia - I Am Singing.wav" WAVE
INDEX 01 00:00:00
TRACK 05 AUDIO
INDEX 00 05:45:12
FILE "05 - Europa (Earth's Cry Heaven's Smile).wav" WAVE
INDEX 01 00:00:00
TRACK 06 AUDIO
INDEX 00 04:19:54
FILE "06 - La Podrida.wav" WAVE
INDEX 01 00:00:00
TRACK 07 AUDIO
INDEX 00 04:46:58
FILE "07 - Latin Lady.wav" WAVE
INDEX 01 00:00:00
TRACK 08 AUDIO
INDEX 00 08:25:07
FILE "08 - Marissea.wav" WAVE
INDEX 01 00:00:00
TRACK 09 AUDIO
INDEX 00 07:39:18
FILE "09 - Speak Low.wav" WAVE
INDEX 01 00:00:00
TRACK 10 AUDIO
INDEX 00 06:32:15
FILE "10 - Bahia.wav" WAVE
INDEX 01 00:00:00
02:26
449
Нет комментариев. Ваш будет первым!