Поиск

(World Fusion, Latin Jazz) Dave Samuels, Paquito D'Rivera, Andy Narell - The Caribbean Jazz Project - 1995, FLAC (tracks+.cue), lossless

(World Fusion, Latin Jazz) Dave Samuels, Paquito D'Rivera, Andy Narell - The Caribbean Jazz Project - 1995, FLAC (tracks+.cue), lossless
Треклист:
♦ Dave Samuels, Paquito D'Rivera, Andy Narell - The Caribbean Jazz Project ♦
Жанр: World Fusion, Latin Jazz
Страна-производитель диска: USA
Год издания: 1995
Издатель (лейбл): Heads Up
Номер по каталогу: HUCD 3033
Аудиокодек: FLAC (*.flac)
Тип рипа: tracks+.cue
Битрейт аудио: lossless
Продолжительность: 00:58:58
Источник (релизер): Sarchiapone
Наличие сканов в содержимом раздачи: да
Треклист:
01. One For Tom [04:59]
02. Abracadabra [06:35]
03. Carousel [02:46]
04. Como Un Bolero [06:03]
05. Paco & Dave [06:05]
06. Valse Triste [06:33]
07. Latin Quarter [05:01]
08. Todo Aquel Ayer [04:15]
09. Three Amigos [06:33]
10. Afro [05:59]
11. Cafe' Espana [04:04]
 
Лог создания рипа
EAC extraction logfile from 17. June 2007, 14:13 for CD
Caribbean Jazz Project / The Caribbean Jazz Project
Used drive : PLEXTOR DVDR PX-716A Adapter: 1 ID: 0
Read mode : Secure with NO C2, accurate stream, disable cache
Read offset correction : 30
Overread into Lead-In and Lead-Out : No
Used output format : C:\Programmi\Exact Audio Copy\flac-1.1.2-win\bin\flac.exe (User Defined Encoder)
32 kBit/s
Additional command line options : -8 -V -T "artist=%a" -T "title=%t" -T "album=%g" -T "date=%y" -T "tracknumber=%n" -T "genre=%m" -T "comment=Exact Audio Copy 0.95 b3 Secure Mode / FLAC q8 v. 1.1.2" %s
Other options :
Fill up missing offset samples with silence : Yes
Delete leading and trailing silent blocks : No
Installed external ASPI interface
Track 1
Filename F:\[MyRip]\01 - One For Tom.wav
Pre-gap length 0:00:02.32
Peak level 97.4 %
Track quality 99.9 %
Test CRC 11A13CCA
Copy CRC 11A13CCA
Copy OK
Track 2
Filename F:\[MyRip]\02 - Abracadabra.wav
Peak level 97.4 %
Track quality 100.0 %
Test CRC 444D4BD2
Copy CRC 444D4BD2
Copy OK
Track 3
Filename F:\[MyRip]\03 - Carousel.wav
Pre-gap length 0:00:00.43
Peak level 95.1 %
Track quality 100.0 %
Test CRC 7ED02BAB
Copy CRC 7ED02BAB
Copy OK
Track 4
Filename F:\[MyRip]\04 - Como Un Bolero.wav
Pre-gap length 0:00:01.32
Peak level 99.8 %
Track quality 99.9 %
Test CRC 8699537D
Copy CRC 8699537D
Copy OK
Track 5
Filename F:\[MyRip]\05 - Paco & Dave.wav
Pre-gap length 0:00:03.40
Peak level 99.8 %
Track quality 100.0 %
Test CRC 1E9A05AF
Copy CRC 1E9A05AF
Copy OK
Track 6
Filename F:\[MyRip]\06 - Valse Triste.wav
Pre-gap length 0:00:01.72
Peak level 99.8 %
Track quality 100.0 %
Test CRC FD43735C
Copy CRC FD43735C
Copy OK
Track 7
Filename F:\[MyRip]\07 - Latin Quarter.wav
Pre-gap length 0:00:02.60
Peak level 92.8 %
Track quality 100.0 %
Test CRC 2F169741
Copy CRC 2F169741
Copy OK
Track 8
Filename F:\[MyRip]\08 - Todo Aquel Ayer.wav
Pre-gap length 0:00:02.35
Peak level 84.2 %
Track quality 100.0 %
Test CRC E03845F5
Copy CRC E03845F5
Copy OK
Track 9
Filename F:\[MyRip]\09 - Three Amigos.wav
Pre-gap length 0:00:00.72
Peak level 88.4 %
Track quality 99.9 %
Test CRC 71431C7D
Copy CRC 71431C7D
Copy OK
Track 10
Filename F:\[MyRip]\10 - Afro.wav
Pre-gap length 0:00:02.62
Peak level 97.4 %
Track quality 100.0 %
Test CRC C53A4601
Copy CRC C53A4601
Copy OK
Track 11
Filename F:\[MyRip]\11 - Cafe' Espana.wav
Pre-gap length 0:00:03.18
Peak level 90.5 %
Track quality 100.0 %
Test CRC 24255272
Copy CRC 24255272
Copy OK
No errors occured
End of status report
 
Содержание индексной карты (.CUE)
REM GENRE Jazz
REM DATE 1995
REM DISCID AD0DD30B
REM COMMENT "ExactAudioCopy v0.95b3"
PERFORMER "Caribbean Jazz Project"
TITLE "The Caribbean Jazz Project"
FILE "01 - One For Tom.wav" WAVE
TRACK 01 AUDIO
TITLE "One For Tom"
PERFORMER "Caribbean Jazz Project"
PREGAP 00:00:32
INDEX 01 00:00:00
FILE "02 - Abracadabra.wav" WAVE
TRACK 02 AUDIO
TITLE "Abracadabra"
PERFORMER "Caribbean Jazz Project"
INDEX 01 00:00:00
TRACK 03 AUDIO
TITLE "Carousel"
PERFORMER "Caribbean Jazz Project"
INDEX 00 06:35:15
FILE "03 - Carousel.wav" WAVE
INDEX 01 00:00:00
TRACK 04 AUDIO
TITLE "Como Un Bolero"
PERFORMER "Caribbean Jazz Project"
INDEX 00 02:45:05
FILE "04 - Como Un Bolero.wav" WAVE
INDEX 01 00:00:00
TRACK 05 AUDIO
TITLE "Paco & Dave"
PERFORMER "Caribbean Jazz Project"
INDEX 00 06:00:05
FILE "05 - Paco & Dave.wav" WAVE
INDEX 01 00:00:00
TRACK 06 AUDIO
TITLE "Valse Triste"
PERFORMER "Caribbean Jazz Project"
INDEX 00 06:03:28
FILE "06 - Valse Triste.wav" WAVE
INDEX 01 00:00:00
TRACK 07 AUDIO
TITLE "Latin Quarter"
PERFORMER "Caribbean Jazz Project"
INDEX 00 06:31:13
FILE "07 - Latin Quarter.wav" WAVE
INDEX 01 00:00:00
TRACK 08 AUDIO
TITLE "Todo Aquel Ayer"
PERFORMER "Caribbean Jazz Project"
INDEX 00 04:59:15
FILE "08 - Todo Aquel Ayer.wav" WAVE
INDEX 01 00:00:00
TRACK 09 AUDIO
TITLE "Three Amigos"
PERFORMER "Caribbean Jazz Project"
INDEX 00 04:14:15
FILE "09 - Three Amigos.wav" WAVE
INDEX 01 00:00:00
TRACK 10 AUDIO
TITLE "Afro"
PERFORMER "Caribbean Jazz Project"
INDEX 00 06:30:48
FILE "10 - Afro.wav" WAVE
INDEX 01 00:00:00
TRACK 11 AUDIO
TITLE "Cafe' Espana"
PERFORMER "Caribbean Jazz Project"
INDEX 00 05:56:00
FILE "11 - Cafe' Espana.wav" WAVE
INDEX 01 00:00:00
 
Состав
Paquito D'Rivera - alto sax, clarinet
Andy Narell - stell pans
Dave Samuels - marimba, vibes
Dario Eskenazi - piano
Oscar Stagnaro - bass
Luis Conte - congas, bongos, timbales, percussion
Mark Walker - drums
13:30
280
Нет комментариев. Ваш будет первым!