Поиск

(World Fusion, Latin Jazz) [CD] Pata Negra - Flamenco Rock Gitano - 2000, FLAC (tracks+.cue), lossless

(World Fusion, Latin Jazz) [CD] Pata Negra - Flamenco Rock Gitano - 2000, FLAC (tracks+.cue), lossless
Треклист:
Pata Negra - Flamenco Rock Gitano
Жанр: World Fusion, Latin Jazz
Носитель: CD
Год издания: 2000
Издатель (лейбл): Ediciones Altaya
Номер по каталогу: N.F. 021
Аудиокодек: FLAC (*.flac)
Тип рипа: tracks+.cue
Битрейт аудио: lossless
Продолжительность: 41:50
Rip by rodcas2
Наличие сканов в содержимом раздачи: да
Треклист:
01. Los Managers (3:04)
02. Blues De Los Ninos (4:30)
03. Rock Del Cayetano (3:15)
04. Bulerias De Menorca (3:32)
05. Guitarras Callejeras (2:33)
06. El Tardon (3:03)
07. Jessica (2:20)
08. Badajoz (3:36)
09. El Partido (4:07)
10. Levante (4:21)
11. Baladilla De Los Tres Rios (3:24)
12. Companero Del Alma (4:05)
 
 
Лог создания рипа
Exact Audio Copy V1.0 beta 3 from 29. August 2011
EAC extraction logfile from 8. April 2015, 19:52
Pata Negra / Flamenco Rock Gitano
Used drive : HL-DT-STDVDRAM GSA-H10N Adapter: 0 ID: 1
Read mode : Secure
Utilize accurate stream : Yes
Defeat audio cache : Yes
Make use of C2 pointers : No
Read offset correction : 667
Overread into Lead-In and Lead-Out : No
Fill up missing offset samples with silence : Yes
Delete leading and trailing silent blocks : No
Null samples used in CRC calculations : Yes
Used interface : Native Win32 interface for Win NT & 2000
Gap handling : Appended to previous track
Used output format : User Defined Encoder
Selected bitrate : 896 kBit/s
Quality : High
Add ID3 tag : No
Command line compressor : C:\Program Files\Exact Audio Copy\Flac\flac.exe
Additional command line options : -8 -V -T "ARTIST=%artist%" -T "TITLE=%title%" -T "ALBUM=%albumtitle%" -T "DATE=%year%" -T "TRACKNUMBER=%tracknr%" -T "TOTALTRACKS=%numtracks%" -T "GENRE=%genre%" -T "ALBUMARTIST=%albumartist%" -T "ALBUM ARTIST=%albumartist%" -T "COMMENT=EAC Secure Mode, Test & Copy, AccurateRip, FLAC -8" %source%
TOC of the extracted CD
Track | Start | Length | Start sector | End sector
---------------------------------------------------------
1 | 0:00.00 | 3:04.07 | 0 | 13806
2 | 3:04.07 | 4:30.35 | 13807 | 34091
3 | 7:34.42 | 3:14.58 | 34092 | 48699
4 | 10:49.25 | 3:31.64 | 48700 | 64588
5 | 14:21.14 | 2:33.19 | 64589 | 76082
6 | 16:54.33 | 3:02.66 | 76083 | 89798
7 | 19:57.24 | 2:19.73 | 89799 | 100296
8 | 22:17.22 | 3:35.71 | 100297 | 116492
9 | 25:53.18 | 4:07.04 | 116493 | 135021
10 | 30:00.22 | 4:20.67 | 135022 | 154588
11 | 34:21.14 | 3:23.65 | 154589 | 169878
12 | 37:45.04 | 4:04.62 | 169879 | 188240
Track 1
Filename D:\EAC-Ripeos\01 - Los Managers.wav
Pre-gap length 0:00:02.00
Peak level 100.0 %
Extraction speed 4.2 X
Track quality 100.0 %
Test CRC 859698F2
Copy CRC 859698F2
Track not present in AccurateRip database
Copy OK
Track 2
Filename D:\EAC-Ripeos\02 - Blues De Los Ninos.wav
Pre-gap length 0:00:02.00
Peak level 100.0 %
Extraction speed 4.9 X
Track quality 100.0 %
Test CRC 2CD43DDA
Copy CRC 2CD43DDA
Track not present in AccurateRip database
Copy OK
Track 3
Filename D:\EAC-Ripeos\03 - Rock Del Cayetano.wav
Pre-gap length 0:00:02.00
Peak level 100.0 %
Extraction speed 4.9 X
Track quality 100.0 %
Test CRC 0F5CF8E3
Copy CRC 0F5CF8E3
Track not present in AccurateRip database
Copy OK
Track 4
Filename D:\EAC-Ripeos\04 - Bulerias De Menorca.wav
Pre-gap length 0:00:02.00
Peak level 100.0 %
Extraction speed 5.4 X
Track quality 100.0 %
Test CRC 623066ED
Copy CRC 623066ED
Track not present in AccurateRip database
Copy OK
Track 5
Filename D:\EAC-Ripeos\05 - Guitarras Callejeras.wav
Pre-gap length 0:00:02.00
Peak level 100.0 %
Extraction speed 5.2 X
Track quality 100.0 %
Test CRC F95EC93B
Copy CRC F95EC93B
Track not present in AccurateRip database
Copy OK
Track 6
Filename D:\EAC-Ripeos\06 - El Tardon.wav
Pre-gap length 0:00:02.00
Peak level 100.0 %
Extraction speed 5.6 X
Track quality 100.0 %
Test CRC FD54DE0A
Copy CRC FD54DE0A
Track not present in AccurateRip database
Copy OK
Track 7
Filename D:\EAC-Ripeos\07 - Jessica.wav
Pre-gap length 0:00:02.00
Peak level 100.0 %
Extraction speed 5.3 X
Track quality 100.0 %
Test CRC 46B34F48
Copy CRC 46B34F48
Track not present in AccurateRip database
Copy OK
Track 8
Filename D:\EAC-Ripeos\08 - Badajoz.wav
Pre-gap length 0:00:02.00
Peak level 100.0 %
Extraction speed 6.4 X
Track quality 100.0 %
Test CRC 6C96223C
Copy CRC 6C96223C
Track not present in AccurateRip database
Copy OK
Track 9
Filename D:\EAC-Ripeos\09 - El Partido.wav
Pre-gap length 0:00:02.00
Peak level 100.0 %
Extraction speed 6.8 X
Track quality 100.0 %
Test CRC 50F288D7
Copy CRC 50F288D7
Track not present in AccurateRip database
Copy OK
Track 10
Filename D:\EAC-Ripeos\10 - Levante.wav
Pre-gap length 0:00:02.00
Peak level 100.0 %
Extraction speed 7.0 X
Track quality 100.0 %
Test CRC 9EDB6D34
Copy CRC 9EDB6D34
Track not present in AccurateRip database
Copy OK
Track 11
Filename D:\EAC-Ripeos\11 - Baladilla De Los Tres Rios.wav
Pre-gap length 0:00:02.00
Peak level 100.0 %
Extraction speed 5.6 X
Track quality 99.9 %
Test CRC 59323585
Copy CRC 59323585
Track not present in AccurateRip database
Copy OK
Track 12
Filename D:\EAC-Ripeos\12 - Companero Del Alma.wav
Pre-gap length 0:00:02.00
Peak level 100.0 %
Extraction speed 7.6 X
Track quality 100.0 %
Test CRC B29EB78E
Copy CRC B29EB78E
Track not present in AccurateRip database
Copy OK
None of the tracks are present in the AccurateRip database
No errors occurred
End of status report
==== Log checksum 2EC79E52805ADEBE378FEFFC671E0CA437DF1A5A9F92875F43D5CFEF0B6B7D8B ====
 
Содержание индексной карты (.CUE)
REM GENRE "Flamenco Fusion"
REM DATE 2000
REM DISCID A009CD0C
REM COMMENT "ExactAudioCopy v1.0b3"
PERFORMER "Pata Negra"
TITLE "Flamenco Rock Gitano"
FILE "01 - Los Managers.wav" WAVE
TRACK 01 AUDIO
TITLE "Los Managers"
PERFORMER "Pata Negra"
FLAGS DCP
INDEX 01 00:00:00
TRACK 02 AUDIO
TITLE "Blues De Los Ninos"
PERFORMER "Pata Negra"
FLAGS DCP
INDEX 00 03:02:07
FILE "02 - Blues De Los Ninos.wav" WAVE
INDEX 01 00:00:00
TRACK 03 AUDIO
TITLE "Rock Del Cayetano"
PERFORMER "Pata Negra"
FLAGS DCP
INDEX 00 04:28:35
FILE "03 - Rock Del Cayetano.wav" WAVE
INDEX 01 00:00:00
TRACK 04 AUDIO
TITLE "Bulerias De Menorca"
PERFORMER "Pata Negra"
FLAGS DCP
INDEX 00 03:12:58
FILE "04 - Bulerias De Menorca.wav" WAVE
INDEX 01 00:00:00
TRACK 05 AUDIO
TITLE "Guitarras Callejeras"
PERFORMER "Pata Negra"
FLAGS DCP
INDEX 00 03:29:64
FILE "05 - Guitarras Callejeras.wav" WAVE
INDEX 01 00:00:00
TRACK 06 AUDIO
TITLE "El Tardon"
PERFORMER "Pata Negra"
FLAGS DCP
INDEX 00 02:31:19
FILE "06 - El Tardon.wav" WAVE
INDEX 01 00:00:00
TRACK 07 AUDIO
TITLE "Jessica"
PERFORMER "Pata Negra"
FLAGS DCP
INDEX 00 03:00:66
FILE "07 - Jessica.wav" WAVE
INDEX 01 00:00:00
TRACK 08 AUDIO
TITLE "Badajoz"
PERFORMER "Pata Negra"
FLAGS DCP
INDEX 00 02:17:73
FILE "08 - Badajoz.wav" WAVE
INDEX 01 00:00:00
TRACK 09 AUDIO
TITLE "El Partido"
PERFORMER "Pata Negra"
FLAGS DCP
INDEX 00 03:33:71
FILE "09 - El Partido.wav" WAVE
INDEX 01 00:00:00
TRACK 10 AUDIO
TITLE "Levante"
PERFORMER "Pata Negra"
FLAGS DCP
INDEX 00 04:05:04
FILE "10 - Levante.wav" WAVE
INDEX 01 00:00:00
TRACK 11 AUDIO
TITLE "Baladilla De Los Tres Rios"
PERFORMER "Pata Negra"
FLAGS DCP
INDEX 00 04:18:67
FILE "11 - Baladilla De Los Tres Rios.wav" WAVE
INDEX 01 00:00:00
TRACK 12 AUDIO
TITLE "Companero Del Alma"
PERFORMER "Pata Negra"
FLAGS DCP
INDEX 00 03:21:65
FILE "12 - Companero Del Alma.wav" WAVE
INDEX 01 00:00:00
18:55
287
Нет комментариев. Ваш будет первым!