Поиск

(World Fusion, Latin Jazz) [CD] Curtis Brothers Quartet - Blood • Spirit • Land • Water • Freedom - 2009, FLAC (image+.cue), lossless

(World Fusion, Latin Jazz) [CD] Curtis Brothers Quartet - Blood • Spirit • Land • Water • Freedom - 2009, FLAC (image+.cue), lossless
Треклист:
♦ Curtis Brothers Quartet - Blood • Spirit • Land • Water • Freedom ♦
Жанр: World Fusion, Latin Jazz
Носитель: CD
Год издания: 2009
Издатель (лейбл): Curtis Bros. Music / Truth Revolution
Аудиокодек: FLAC (*.flac)
Тип рипа: image+.cue
Битрейт аудио: lossless
Продолжительность: 01:12:44
Источник (релизер): dreadbull
Наличие сканов в содержимом раздачи: да
Треклист:
01. Curtis Anew [02:55]
02. Thoughts Not My Own [05:21]
03. Twisted Histories [03:51]
04. Yuba Citrico [05:43]
05. Taino Revenge [05:07]
06. Bouncing With Bud [06:55]
07. Memories In Ether [02:45]
08. The Spoiler [02:45]
09. Op. 25 No. 2 [06:02]
10. Take That Seat [05:55]
11. Maria Cervantes [08:27]
12. Alkalinity [03:56]
13. Solutions [04:04]
14. Song To Break The Spell [05:47]
15. El Calderon [03:04]
 
Лог создания рипа
Exact Audio Copy V1.0 beta 3 from 29. August 2011
EAC extraction logfile from 28. December 2013, 13:52
Curtis Brothers Quartet / Blood - Spirit - Land - Water - Freedom
Used drive : ASUS DRW-22B2L Adapter: 0 ID: 0
Read mode : Secure
Utilize accurate stream : Yes
Defeat audio cache : Yes
Make use of C2 pointers : No
Read offset correction : 6
Overread into Lead-In and Lead-Out : No
Fill up missing offset samples with silence : Yes
Delete leading and trailing silent blocks : No
Null samples used in CRC calculations : Yes
Used interface : Native Win32 interface for Win NT & 2000
Used output format : User Defined Encoder
Selected bitrate : 128 kBit/s
Quality : High
Add ID3 tag : Yes
Command line compressor : C:\Program Files (x86)\FLAC\flac.exe
Additional command line options : -8 -V -T "ARTIST=%artist%" -T "TITLE=%title%" -T "ALBUM=%albumtitle%" -T "DATE=%year%" -T "TRACKNUMBER=%tracknr%" -T "GENRE=%genre%" -T "PERFORMER=%albuminterpret%" -T "COMPOSER=%composer%" %haslyrics%--tag-from-file=LYRICS="%lyricsfile%"%haslyrics% -T "ALBUMARTIST=%albumartist%" -T "DISCNUMBER=%cdnumber%" -T "TOTALDISCS=%totalcds%" -T "TOTALTRACKS=%numtracks%" -T "COMMENT=%comment%" %source% -o %dest%
TOC of the extracted CD
Track | Start | Length | Start sector | End sector
---------------------------------------------------------
1 | 0:00.00 | 2:55.50 | 0 | 13174
2 | 2:55.50 | 5:21.41 | 13175 | 37290
3 | 8:17.16 | 3:51.05 | 37291 | 54620
4 | 12:08.21 | 5:43.42 | 54621 | 80387
5 | 17:51.63 | 5:07.61 | 80388 | 103473
6 | 22:59.49 | 6:55.18 | 103474 | 134616
7 | 29:54.67 | 2:45.67 | 134617 | 147058
8 | 32:40.59 | 2:45.07 | 147059 | 159440
9 | 35:25.66 | 6:02.26 | 159441 | 186616
10 | 41:28.17 | 5:55.24 | 186617 | 213265
11 | 47:23.41 | 8:27.29 | 213266 | 251319
12 | 55:50.70 | 3:56.54 | 251320 | 269073
13 | 59:47.49 | 4:04.19 | 269074 | 287392
14 | 63:51.68 | 5:47.52 | 287393 | 313469
15 | 69:39.45 | 3:04.40 | 313470 | 327309
Range status and errors
Selected range
Filename G:\Donkey Files\Curtis Brothers Quartet - Blood, Spirit, Land, Water, Freedom (2009, Truth Revolution) [eac-flac-scans] byDrBull\Curtis Brothers Quartet.wav
Peak level 100.0 %
Extraction speed 6.1 X
Range quality 99.9 %
Test CRC 598850E1
Copy CRC 598850E1
Copy OK
No errors occurred
AccurateRip summary
Track 1 accurately ripped (confidence 2) [E6719470] (AR v1)
Track 2 accurately ripped (confidence 2) [B8B9C813] (AR v1)
Track 3 accurately ripped (confidence 2) [3F39645C] (AR v1)
Track 4 accurately ripped (confidence 2) [A088DCA1] (AR v1)
Track 5 accurately ripped (confidence 2) [44569D13] (AR v1)
Track 6 accurately ripped (confidence 2) [34EAEB41] (AR v1)
Track 7 accurately ripped (confidence 2) [6A3D5887] (AR v1)
Track 8 accurately ripped (confidence 2) [4866259B] (AR v1)
Track 9 accurately ripped (confidence 2) [F7A7DFDD] (AR v1)
Track 10 accurately ripped (confidence 2) [06C7D466] (AR v1)
Track 11 accurately ripped (confidence 2) [4A689D85] (AR v1)
Track 12 accurately ripped (confidence 2) [A2FE5AD4] (AR v1)
Track 13 accurately ripped (confidence 2) [D3934871] (AR v1)
Track 14 accurately ripped (confidence 2) [8B521A59] (AR v1)
Track 15 accurately ripped (confidence 2) [430092EE] (AR v1)
All tracks accurately ripped
End of status report
---- CUETools DB Plugin V2.1.3
[CTDB TOCID: gxJ.w4N1qxbo50_bvVj1hZ8SR0w-] disk not present in database, Submit result: gxJ.w4N1qxbo50_bvVj1hZ8SR0w- has been uploaded
 
Содержание индексной карты (.CUE)
REM GENRE Jazz
REM DATE 2009
REM DISCID E5110C0F
REM COMMENT "ExactAudioCopy v1.0b3"
PERFORMER "Curtis Brothers Quartet"
TITLE "Blood - Spirit - Land - Water - Freedom"
FILE "Curtis Brothers Quartet.flac" WAVE
TRACK 01 AUDIO
TITLE "Curtis Anew"
PERFORMER "Curtis Brothers Quartet"
INDEX 01 00:00:00
TRACK 02 AUDIO
TITLE "Thoughts Not My Own"
PERFORMER "Curtis Brothers Quartet"
INDEX 00 02:53:50
INDEX 01 02:55:50
TRACK 03 AUDIO
TITLE "Twisted Histories"
PERFORMER "Curtis Brothers Quartet"
INDEX 00 08:15:16
INDEX 01 08:17:16
TRACK 04 AUDIO
TITLE "Yuba Citrico"
PERFORMER "Curtis Brothers Quartet"
INDEX 00 12:06:21
INDEX 01 12:08:21
TRACK 05 AUDIO
TITLE "Taino Revenge"
PERFORMER "Curtis Brothers Quartet"
INDEX 00 17:49:63
INDEX 01 17:51:63
TRACK 06 AUDIO
TITLE "Bouncing With Bud"
PERFORMER "Curtis Brothers Quartet"
INDEX 00 22:57:49
INDEX 01 22:59:49
TRACK 07 AUDIO
TITLE "Memories In Ether"
PERFORMER "Curtis Brothers Quartet"
INDEX 00 29:52:67
INDEX 01 29:54:67
TRACK 08 AUDIO
TITLE "The Spoiler"
PERFORMER "Curtis Brothers Quartet"
INDEX 00 32:38:59
INDEX 01 32:40:59
TRACK 09 AUDIO
TITLE "Op. 25 No. 2"
PERFORMER "Curtis Brothers Quartet"
INDEX 00 35:23:66
INDEX 01 35:25:66
TRACK 10 AUDIO
TITLE "Take That Seat"
PERFORMER "Curtis Brothers Quartet"
INDEX 00 41:26:17
INDEX 01 41:28:17
TRACK 11 AUDIO
TITLE "Maria Cervantes"
PERFORMER "Curtis Brothers Quartet"
INDEX 00 47:21:41
INDEX 01 47:23:41
TRACK 12 AUDIO
TITLE "Alkalinity"
PERFORMER "Curtis Brothers Quartet"
INDEX 00 55:48:70
INDEX 01 55:50:70
TRACK 13 AUDIO
TITLE "Solutions"
PERFORMER "Curtis Brothers Quartet"
INDEX 00 59:45:49
INDEX 01 59:47:49
TRACK 14 AUDIO
TITLE "Song To Break The Spell"
PERFORMER "Curtis Brothers Quartet"
INDEX 00 63:49:68
INDEX 01 63:51:68
TRACK 15 AUDIO
TITLE "El Calderon"
PERFORMER "Curtis Brothers Quartet"
INDEX 00 69:37:45
INDEX 01 69:39:45
 
Состав
Zaccai Curtis - piano;
Luques Curtis - bass;
Reinaldo de Jesús - congas;
Richie Barshay - drums;
Michael Dease - trombone (#1,10);
Frank Kozyra - soprano sax (#1,10);
Mark Whitfield - guitar (#7);
Camilo Molina Gaetán - batá (#10);
Giovanni Almonte - vocals (#2);
Julie Acosta - vocals (#10);
Tiffany Ente - vocals (#10);
Jee Youn Hong - cello (#5);
Sung Hee Choi - viola (#5).
13:18
288
Нет комментариев. Ваш будет первым!