Поиск

(World Fusion, Latin jazz) Bochinche - Caracas - 1990, FLAC (image+.cue), lossless

(World Fusion, Latin jazz) Bochinche - Caracas - 1990, FLAC (image+.cue), lossless
Треклист:
•Bochinche - Caracas•
Жанр: World Fusion, Latin jazz
Год издания: 1990
Издатель (лейбл): Oxymoron / Heads Up
Номер по каталогу: OXCD 3008-2
Аудиокодек: FLAC (*.flac)
Тип рипа: image+.cue
Битрейт аудио: lossless
Продолжительность: 00:52:26
Источник (релизер): dreadbull
Наличие сканов в содержимом раздачи: да
Треклист:
01.Tributo al Bailador {06:20}
02.Tu Sonrisa {05:44}
03.Currucuc {03:48}
04.Caracas {08:33}
05.Amazonas {05:41}
06.Y Nada M s {05:46}
07.Porque Tu Me Acostumbraste {07:03}
08.Song {05:26}
09.The Happy Walk {04:04}
 
Лог создания рипа
Exact Audio Copy V1.0 beta 3 from 29. August 2011
EAC extraction logfile from 28. October 2012, 15:28
Bochinche / Bochinche Caracas
Used drive : ASUS DRW-22B2L Adapter: 0 ID: 0
Read mode : Secure
Utilize accurate stream : Yes
Defeat audio cache : Yes
Make use of C2 pointers : No
Read offset correction : 6
Overread into Lead-In and Lead-Out : No
Fill up missing offset samples with silence : Yes
Delete leading and trailing silent blocks : No
Null samples used in CRC calculations : Yes
Used interface : Native Win32 interface for Win NT & 2000
Used output format : User Defined Encoder
Selected bitrate : 128 kBit/s
Quality : High
Add ID3 tag : Yes
Command line compressor : C:\Program Files\FLAC\flac.exe
Additional command line options : -8 -V -T "ARTIST=%artist%" -T "TITLE=%title%" -T "ALBUM=%albumtitle%" -T "DATE=%year%" -T "TRACKNUMBER=%tracknr%" -T "GENRE=%genre%" -T "PERFORMER=%albuminterpret%" -T "COMPOSER=%composer%" %haslyrics%--tag-from-file=LYRICS="%lyricsfile%"%haslyrics% -T "ALBUMARTIST=%albumartist%" -T "DISCNUMBER=%cdnumber%" -T "TOTALDISCS=%totalcds%" -T "TOTALTRACKS=%numtracks%" -T "COMMENT=%comment%" %source% -o %dest%
TOC of the extracted CD
Track | Start | Length | Start sector | End sector
---------------------------------------------------------
1 | 0:00.32 | 6:20.00 | 32 | 28531
2 | 6:20.32 | 5:44.00 | 28532 | 54331
3 | 12:04.32 | 3:48.00 | 54332 | 71431
4 | 15:52.32 | 8:34.00 | 71432 | 109981
5 | 24:26.32 | 5:41.00 | 109982 | 135556
6 | 30:07.32 | 5:46.00 | 135557 | 161506
7 | 35:53.32 | 7:03.00 | 161507 | 193231
8 | 42:56.32 | 5:26.00 | 193232 | 217681
9 | 48:22.32 | 4:04.10 | 217682 | 235991
Range status and errors
Selected range
Filename F:\Donkey Files\Bochinche - Caracas (1990, Heads Up) [eac-flac-scans] byDrBull\Bochinche - Caracas.wav
Peak level 99.7 %
Extraction speed 3.1 X
Range quality 100.0 %
Test CRC A170181F
Copy CRC A170181F
Copy OK
No errors occurred
AccurateRip summary
Track 1 accurately ripped (confidence 1) [D1C3281E] (AR v1)
Track 2 accurately ripped (confidence 1) [9D33EDB6] (AR v1)
Track 3 accurately ripped (confidence 1) [73F0FF4F] (AR v1)
Track 4 accurately ripped (confidence 1) [4153F55A] (AR v1)
Track 5 accurately ripped (confidence 1) [34E32B61] (AR v1)
Track 6 accurately ripped (confidence 1) [E1775BAB] (AR v1)
Track 7 accurately ripped (confidence 1) [4A645EBF] (AR v1)
Track 8 accurately ripped (confidence 1) [1F94C856] (AR v1)
Track 9 accurately ripped (confidence 1) [504E52F6] (AR v1)
All tracks accurately ripped
End of status report
==== Log checksum 8E59F6AF325F323798808E32165F1FB4465AE833D9610C24C6E4758278776428 ====
 
Содержание индексной карты (.CUE)
REM DISCID 870C4A09
REM COMMENT "ExactAudioCopy v1.0b3"
PERFORMER "Bochinche"
TITLE "Bochinche Caracas"
FILE "Bochinche - Caracas.flac" WAVE
TRACK 01 AUDIO
TITLE "Tributo al Bailador"
PERFORMER "Bochinche"
INDEX 00 00:00:00
INDEX 01 00:00:32
TRACK 02 AUDIO
TITLE "Tu Sonrisa"
PERFORMER "Bochinche"
INDEX 00 06:18:65
INDEX 01 06:20:32
TRACK 03 AUDIO
TITLE "Currucuc "
PERFORMER "Bochinche"
INDEX 00 12:03:02
INDEX 01 12:04:32
TRACK 04 AUDIO
TITLE "Caracas"
PERFORMER "Bochinche"
INDEX 00 15:50:11
INDEX 01 15:52:32
TRACK 05 AUDIO
TITLE "Amazonas"
PERFORMER "Bochinche"
INDEX 00 24:24:30
INDEX 01 24:26:32
TRACK 06 AUDIO
TITLE "Y Nada M s"
PERFORMER "Bochinche"
INDEX 00 30:06:15
INDEX 01 30:07:32
TRACK 07 AUDIO
TITLE "Porque Tu Me Acostumbraste"
PERFORMER "Bochinche"
INDEX 00 35:51:70
INDEX 01 35:53:32
TRACK 08 AUDIO
TITLE "Song "
PERFORMER "Bochinche"
INDEX 00 42:55:30
INDEX 01 42:56:32
TRACK 09 AUDIO
TITLE "The Happy Walk"
PERFORMER "Bochinche"
INDEX 00 48:20:27
INDEX 01 48:22:32
 
Состав
Eduardo Quintero - lead vocals, maracas, coro, arranger (#3);
Fred Hoadley - piano, synthesizers, coro, arranger (#4,6-8);
Steve Mostovoy - trumpet, flugelhorn, synthesizers, coro, arranger (#3,9);
Barney Brazitis - bass, coro, arranger (#1,5);
Tom Bergerson - congas;
Glenn Ayers - timbales, drum set, cowbell;
Doug Canning - trumpet, flugelhorn;
Bill Anthony - trombone.
Guests:
Michael Spiro - arranger (#2,4-6,8), bongos (#1,4,5,7), timbales (#2,6), percussion (#2,4,8), Brazilian perussion (#4), güiro (#5,6), cowbell (#6);
Kelly Harland - vocals (#2);
Dewey Marler - baritone sax (#2);
Ernesto Pediangco - congas (#3,9), vocals (#9);
Alex Acosta - coro;
Michael Gonzalez, Don Culbertson, Filesha Friendship, Leslyn Jones, Lori Udovich, Diane Carrasca, Clothilde Melina, Felerie Ramos, John Mifsud- choir led by Kent Stevenson (#4);
Cecilia PaBenito, Suzanne Le, Antwan Bekele, Jeannine Ramacho - children's choir from St. Edward School (#4);
Alice Kerr - coro (#6);
Jorge Luis Balmaseda - arranger (#7);
Bernard Wrey - segundo, chekeré, cowbell (#8).Rec. at Lawson Productions, Seattle, WA, from Sep 1989 to May 1990.
05:16
228
Нет комментариев. Ваш будет первым!