Поиск

(World Fusion) Kip Hanrahan - All Roads Are Made of The Flesh - 1995, FLAC (tracks+.cue), lossless

(World Fusion) Kip Hanrahan - All Roads Are Made of The Flesh - 1995, FLAC (tracks+.cue), lossless
Треклист:
Kip Hanrahan - All Roads Are Made of The Flesh
Жанр: World Fusion
Год выпуска диска: 1995
Производитель диска: U.S.A.
Аудио кодек: FLAC
Тип рипа: tracks+.cue
Битрейт аудио: lossless
Продолжительность: 45:08
Трэклист:
1 .Buddy Bolden's Blues (9:45)
2. ...At The Same Time As The Subway Train Was Pulling Out Of The Station... (5:18)
3 .The First And Last To Love Me (4, December) (10:26)
4 .The September Dawn Shows Itself To Elizabeth And Her Lover On East18th Street In Manhattan (7:36)
5 .The Same Dawn, At Almost The Exact Same Moment, Actually Smiles At Don In Passaic (5:04)
6. Within An Hour, In New Orleans, Charles Knows The Light's In The Room Without Even Opening His Eyes (0:57)
7. The First And Last To Love Me (2, October) (5:57)
Доп. информация:
Label: American Clavé
Catalog#: AMCL1029
Rip с фирменного CD из собственной коллекции
 
Credits:
George Adams -tenor sax
Robert Ameen -drums
Alfredo "Chocolate" Armenteros -trumpet
Ignacio Berroa -drums
Jack Bruce -bass, vocals
Milton Cardona -conga
Anthony Carrillo -conga
Richie Flores -conga
Chico Freeman -tenor sax
Renaud Garcia-Fons -bass
Charles Gonzalez -bass
William Green -drums
Kip Hanrahan -arranger, conductor, producer
Giovanni Hidalgo -conga
J.T. Lewis -drums
Carmen Lundy -vocals
Charles Neville -tenor sax
Leo Nocentelli -guitar
Don Pullen -organ, piano
Wolfgang Puschnig -alto sax
Elysee Pyronneau -guitar
Michael Riessler -bass clarinet
Dino Saluzzi -bandoneon
Steve Swallow -bass
Allen Toussaint -piano
Alfredo Triff -violin
 
Log file:
Отчёт EAC об извлечении, выполненном 14. августа 2009, 14:53 для диска:
Kip Hanrahan / All Roads Are Made of The Flesh
Дисковод: MATSHITABD-MLT UJ-210S Adapter: 0 ID: 0
Режим чтения: Достоверный (C2: нет, Точный поток: да, Отключение кэша: да)
Коррекция смещения при чтении: 102
Способность читать области Lead-in и Lead-out : Нет
Выходной формат: Внутренние WAV-операции
44.100 Гц; 16 бит; стерео
Другие параметры:
Заполнение пропущенных сэмплов тишиной : Да
Удаление блоков с тишиной в начале и конце : Нет
Встроенный Win32-интерфейс для Win NT/2000
Трек 1
Имя файла J:\temp\Kip Hanrahan - All Roads Are Made of The Flesh\01. Buddy Bolden's Blues.wav
Длина предзазора 0:00:02.00
Пиковый уровень 100.0 %
Качество трека 100.0 %
CRC теста 26A8D335
CRC копии 26A8D335
Копирование... OK
Трек 2
Имя файла J:\temp\Kip Hanrahan - All Roads Are Made of The Flesh\02. ...at the same time as the subway train was pulling out of the station....wav
Пиковый уровень 100.0 %
Качество трека 100.0 %
CRC теста 22FA312E
CRC копии 22FA312E
Копирование... OK
Трек 3
Имя файла J:\temp\Kip Hanrahan - All Roads Are Made of The Flesh\03. The First And Last To Love Me (4, December).wav
Длина предзазора 0:00:00.25
Пиковый уровень 100.0 %
Качество трека 100.0 %
CRC теста CE80FAA4
CRC копии CE80FAA4
Копирование... OK
Трек 4
Имя файла J:\temp\Kip Hanrahan - All Roads Are Made of The Flesh\04. the September dawn shows itself to Elizabeth and her lover on East18th Street in Manhattan.wav
Длина предзазора 0:00:00.03
Пиковый уровень 100.0 %
Качество трека 100.0 %
CRC теста 9CD43876
CRC копии 9CD43876
Копирование... OK
Трек 5
Имя файла J:\temp\Kip Hanrahan - All Roads Are Made of The Flesh\05. the same dawn, at almost the exact same moment, actually smiles at Don in Passaic.wav
Пиковый уровень 100.0 %
Качество трека 100.0 %
CRC теста 91A1204A
CRC копии 91A1204A
Копирование... OK
Трек 6
Имя файла J:\temp\Kip Hanrahan - All Roads Are Made of The Flesh\06. within an hour, in New Orleans, Charles knows the light's in the room without even opening his eyes.wav
Пиковый уровень 50.9 %
Качество трека 100.0 %
CRC теста D52D700A
CRC копии D52D700A
Копирование... OK
Трек 7
Имя файла J:\temp\Kip Hanrahan - All Roads Are Made of The Flesh\07. The First And Last To Love Me (2, October).wav
Пиковый уровень 100.0 %
Качество трека 99.9 %
CRC теста 5E905A7C
CRC копии 5E905A7C
Копирование... OK
Ошибок не произошло
Конец отчёта
 
.CUE
REM GENRE Jazz
REM DATE 1995
REM DISCID 660A9207
REM COMMENT "ExactAudioCopy v0.95b4"
PERFORMER "Kip Hanrahan"
TITLE "All Roads Are Made of The Flesh"
FILE "Kip Hanrahan - All Roads Are Made of The Flesh\01. Buddy Bolden's Blues.wav" WAVE
TRACK 01 AUDIO
TITLE "Buddy Bolden's Blues "
PERFORMER "Kip Hanrahan"
ISRC USAC19502901
INDEX 01 00:00:00
FILE "Kip Hanrahan - All Roads Are Made of The Flesh\02. ...at the same time as the subway train was pulling out of the station....wav" WAVE
TRACK 02 AUDIO
TITLE "...at the same time as the subway train was pulling out of the station... "
PERFORMER "Kip Hanrahan"
ISRC USAC19502902
INDEX 01 00:00:00
TRACK 03 AUDIO
TITLE "The First And Last To Love Me (4, December)"
PERFORMER "Kip Hanrahan"
ISRC USAC19502903
INDEX 00 05:18:48
FILE "Kip Hanrahan - All Roads Are Made of The Flesh\03. The First And Last To Love Me (4, December).wav" WAVE
INDEX 01 00:00:00
TRACK 04 AUDIO
TITLE "the September dawn shows itself to Elizabeth and her lover on East18th Street..."
PERFORMER "Kip Hanrahan"
ISRC USAC19502904
INDEX 00 10:26:64
FILE "Kip Hanrahan - All Roads Are Made of The Flesh\04. the September dawn shows itself to Elizabeth and her lover on East18th Street in Manhattan.wav" WAVE
INDEX 01 00:00:00
FILE "Kip Hanrahan - All Roads Are Made of The Flesh\05. the same dawn, at almost the exact same moment, actually smiles at Don in Passaic.wav" WAVE
TRACK 05 AUDIO
TITLE "the same dawn, at almost the exact same moment, actually smiles at Don in Pas..."
PERFORMER "Kip Hanrahan"
ISRC USAC19502905
INDEX 01 00:00:00
FILE "Kip Hanrahan - All Roads Are Made of The Flesh\06. within an hour, in New Orleans, Charles knows the light's in the room without even opening his eyes.wav" WAVE
TRACK 06 AUDIO
TITLE "within an hour, in New Orleans, Charles knows the light's in the room without..."
PERFORMER "Kip Hanrahan"
ISRC USAC19502906
INDEX 01 00:00:00
FILE "Kip Hanrahan - All Roads Are Made of The Flesh\07. The First And Last To Love Me (2, October).wav" WAVE
TRACK 07 AUDIO
TITLE "The First And Last To Love Me (2, October)"
PERFORMER "Kip Hanrahan"
ISRC USAC19502907
INDEX 01 00:00:00

Внимание! Торрент-файл перезалит без изменения содержимого в связи с просьбой администрации снять флаг «Приватная раздача»
Скачавшим ранее просьба перекачать торрент-файл, перехешировать и присоединиться к раздаче.
По всем вопросам пишите личное сообщение пользователю M0p94ok.
07:45
187
Нет комментариев. Ваш будет первым!