Поиск

(World Fusion, Jazz vocal) [CD] Matan Klein Ensemble - Naomi's Groove - 2012 (Self Released), FLAC (tracks+.cue), lossless

(World Fusion, Jazz vocal) [CD] Matan Klein Ensemble - Naomi's Groove - 2012 (Self Released), FLAC (tracks+.cue), lossless
Треклист:



Matan Klein Ensemble - Naomi's Groove - 2012 (Self Released)
Посвящение легендарной Наоми Шемер, композитору и "крестной матери" израильской песни, творившей в 50's, 60's and 70's. Органичная смесь Reggae, Funk, Cuban, Middle Eastern, Brazilian, Country и просто джаз-рока.
Жанр: World Fusion, Jazz vocal
Носитель:CD (compilation, archival)
Страна-производитель диска (релиза): Israel
Год издания оригинала: 2012
Издатель (лейбл): Self Released
Номер по каталогу: MK1908
Страна исполнителя (группы): Israel
Аудио кодек: FLAC (*.flac)
Тип рипа: (tracks + .cue)
Битрейт аудио: lossless
Корректность рипа:
Наличие сканов в содержимом раздачи: full scans, jpeg png, 300 dpi
Продолжительность: 1:00:36
Источник (релизер):Моя коллекция, мой рип
Трэклист:
1. Sdot Beit Lechem 5:39
2. Leyl Emesh 5:06
3. Tilbeshi Lavan 8:13
4. Acharei Hashkia'a Basade 2:40
5. Shlomit Bona Sukkah 8:45
6. Layla Bechof Achziv 4:29
7. Ir Levana 9:26
8. Hadoar Ba Hayom 3:43
9. Serenada Lach 6:28
10. Mitriya B'shnayim 3:35
11. Machboi'im 2:27
 
Лог создания рипа (4. January 2017)
Exact Audio Copy V1.3 from 2. September 2016
EAC extraction logfile from 4. January 2017, 9:47
Matan Klein Ensemble / Naomi's Groove
Used drive : HL-DT-STDVDRAM GH24NSB0 Adapter: 1 ID: 0
Read mode : Secure
Utilize accurate stream : Yes
Defeat audio cache : Yes
Make use of C2 pointers : No
Read offset correction : 6
Overread into Lead-In and Lead-Out : No
Fill up missing offset samples with silence : Yes
Delete leading and trailing silent blocks : No
Null samples used in CRC calculations : Yes
Used interface : Native Win32 interface for Win NT & 2000
Gap handling : Appended to previous track
Used output format : User Defined Encoder
Selected bitrate : 1024 kBit/s
Quality : High
Add ID3 tag : No
Command line compressor : C:\Program Files (x86)\Exact Audio Copy\FLAC\FLAC.EXE
Additional command line options : -V -8 -T "Genre=%genre%" -T "Artist=%artist%" -T "Title=%title%" -T "Album=%albumtitle%" -T "Date=%year%" -T "Tracknumber=%tracknr%" -T "Comment=%comment%" %source%
TOC of the extracted CD
Track | Start | Length | Start sector | End sector
---------------------------------------------------------
1 | 0:00.00 | 5:39.22 | 0 | 25446
2 | 5:39.22 | 5:06.63 | 25447 | 48459
3 | 10:46.10 | 8:13.28 | 48460 | 85462
4 | 18:59.38 | 2:40.70 | 85463 | 97532
5 | 21:40.33 | 8:45.43 | 97533 | 136950
6 | 30:26.01 | 4:29.12 | 136951 | 157137
7 | 34:55.13 | 9:26.24 | 157138 | 199611
8 | 44:21.37 | 3:43.29 | 199612 | 216365
9 | 48:04.66 | 6:28.29 | 216366 | 245494
10 | 54:33.20 | 3:35.44 | 245495 | 261663
11 | 58:08.64 | 2:27.25 | 261664 | 272713
Track 1
Filename D:\Musicgate's rips\Matan Klein Ensemble - Naomi's Groove - 2012 (Self Released MK1908)\01 - Fields of Bethlehem.wav
Pre-gap length 0:00:02.00
Peak level 99.4 %
Extraction speed 1.0 X
Track quality 99.9 %
Test CRC 0C4CC34C
Copy CRC 0C4CC34C
Accurately ripped (confidence 1) [3C6A29EF] (AR v2)
Copy OK
Track 2
Filename D:\Musicgate's rips\Matan Klein Ensemble - Naomi's Groove - 2012 (Self Released MK1908)\02 - Last Night.wav
Pre-gap length 0:00:02.00
Peak level 99.1 %
Extraction speed 1.3 X
Track quality 100.0 %
Test CRC 5F629986
Copy CRC 5F629986
Accurately ripped (confidence 1) [4181C5E8] (AR v2)
Copy OK
Track 3
Filename D:\Musicgate's rips\Matan Klein Ensemble - Naomi's Groove - 2012 (Self Released MK1908)\03 - You Will Wear White.wav
Pre-gap length 0:00:01.37
Peak level 100.0 %
Extraction speed 1.5 X
Track quality 100.0 %
Test CRC 5371049F
Copy CRC 5371049F
Accurately ripped (confidence 1) [1A4AF71C] (AR v2)
Copy OK
Track 4
Filename D:\Musicgate's rips\Matan Klein Ensemble - Naomi's Groove - 2012 (Self Released MK1908)\04 - After the Sun Sets in the Field.wav
Pre-gap length 0:00:02.00
Peak level 99.0 %
Extraction speed 1.4 X
Track quality 100.0 %
Test CRC CA8CC27D
Copy CRC CA8CC27D
Accurately ripped (confidence 1) [ADB7C2CD] (AR v2)
Copy OK
Track 5
Filename D:\Musicgate's rips\Matan Klein Ensemble - Naomi's Groove - 2012 (Self Released MK1908)\05 - Shlomit is Building a Sukkah.wav
Pre-gap length 0:00:02.00
Peak level 100.0 %
Extraction speed 1.8 X
Track quality 100.0 %
Test CRC 7DF53171
Copy CRC 7DF53171
Accurately ripped (confidence 1) [2F752F2E] (AR v2)
Copy OK
Track 6
Filename D:\Musicgate's rips\Matan Klein Ensemble - Naomi's Groove - 2012 (Self Released MK1908)\06 - A Night at Achziv Beach.wav
Pre-gap length 0:00:02.45
Peak level 99.4 %
Extraction speed 1.8 X
Track quality 100.0 %
Test CRC C51F90DD
Copy CRC C51F90DD
Accurately ripped (confidence 1) [1683AA94] (AR v2)
Copy OK
Track 7
Filename D:\Musicgate's rips\Matan Klein Ensemble - Naomi's Groove - 2012 (Self Released MK1908)\07 - White City.wav
Pre-gap length 0:00:04.00
Peak level 99.9 %
Extraction speed 2.1 X
Track quality 100.0 %
Test CRC 26948AB0
Copy CRC 26948AB0
Accurately ripped (confidence 1) [B32BF445] (AR v2)
Copy OK
Track 8
Filename D:\Musicgate's rips\Matan Klein Ensemble - Naomi's Groove - 2012 (Self Released MK1908)\08 - The Mail Has Arrived Today.wav
Pre-gap length 0:00:02.00
Peak level 99.0 %
Extraction speed 2.0 X
Track quality 100.0 %
Test CRC 27CFA63C
Copy CRC 27CFA63C
Accurately ripped (confidence 1) [8C7C94BB] (AR v2)
Copy OK
Track 9
Filename D:\Musicgate's rips\Matan Klein Ensemble - Naomi's Groove - 2012 (Self Released MK1908)\09 - A Serenade for You.wav
Pre-gap length 0:00:02.00
Peak level 99.3 %
Extraction speed 2.2 X
Track quality 100.0 %
Test CRC 9DC04543
Copy CRC 9DC04543
Accurately ripped (confidence 1) [A04FB655] (AR v2)
Copy OK
Track 10
Filename D:\Musicgate's rips\Matan Klein Ensemble - Naomi's Groove - 2012 (Self Released MK1908)\10 - An Umbrella for Two.wav
Pre-gap length 0:00:04.00
Peak level 99.4 %
Extraction speed 2.2 X
Track quality 100.0 %
Test CRC 3834207B
Copy CRC 3834207B
Accurately ripped (confidence 1) [3F579BCA] (AR v2)
Copy OK
Track 11
Filename D:\Musicgate's rips\Matan Klein Ensemble - Naomi's Groove - 2012 (Self Released MK1908)\11 - Hide and Seek.wav
Pre-gap length 0:00:02.00
Peak level 99.2 %
Extraction speed 2.0 X
Track quality 100.0 %
Test CRC ADE35A3F
Copy CRC ADE35A3F
Accurately ripped (confidence 1) [66BDA6BC] (AR v2)
Copy OK
All tracks accurately ripped
No errors occurred
End of status report
==== Log checksum 93EDEA3BEF24ED2EAEAFF42C754EBEBAB71D433F0C4F9B2D5C33932D7488CF4F ====
 
Содержание индексной карты (.CUE):
REM GENRE "Ethnic Fusion"
REM DATE 2012
REM DISCID 980E340B
REM COMMENT "ExactAudioCopy v1.3"
PERFORMER "Matan Klein Ensemble"
TITLE "Naomi's Groove"
REM COMPOSER ""
FILE "01 - Fields of Bethlehem.wav" WAVE
TRACK 01 AUDIO
TITLE "Fields of Bethlehem"
PERFORMER "Matan Klein Ensemble"
REM COMPOSER ""
INDEX 01 00:00:00
TRACK 02 AUDIO
TITLE "Last Night"
PERFORMER "Matan Klein Ensemble"
REM COMPOSER ""
INDEX 00 05:37:22
FILE "02 - Last Night.wav" WAVE
INDEX 01 00:00:00
TRACK 03 AUDIO
TITLE "You Will Wear White"
PERFORMER "Matan Klein Ensemble"
REM COMPOSER ""
INDEX 00 05:05:26
FILE "03 - You Will Wear White.wav" WAVE
INDEX 01 00:00:00
TRACK 04 AUDIO
TITLE "After the Sun Sets in the Field"
PERFORMER "Matan Klein Ensemble"
REM COMPOSER ""
INDEX 00 08:11:28
FILE "04 - After the Sun Sets in the Field.wav" WAVE
INDEX 01 00:00:00
TRACK 05 AUDIO
TITLE "Shlomit is Building a Sukkah"
PERFORMER "Matan Klein Ensemble"
REM COMPOSER ""
INDEX 00 02:38:70
FILE "05 - Shlomit is Building a Sukkah.wav" WAVE
INDEX 01 00:00:00
TRACK 06 AUDIO
TITLE "A Night at Achziv Beach"
PERFORMER "Matan Klein Ensemble"
REM COMPOSER ""
INDEX 00 08:42:73
FILE "06 - A Night at Achziv Beach.wav" WAVE
INDEX 01 00:00:00
TRACK 07 AUDIO
TITLE "White City"
PERFORMER "Matan Klein Ensemble"
REM COMPOSER ""
INDEX 00 04:25:12
FILE "07 - White City.wav" WAVE
INDEX 01 00:00:00
TRACK 08 AUDIO
TITLE "The Mail Has Arrived Today"
PERFORMER "Matan Klein Ensemble"
REM COMPOSER ""
INDEX 00 09:24:24
FILE "08 - The Mail Has Arrived Today.wav" WAVE
INDEX 01 00:00:00
TRACK 09 AUDIO
TITLE "A Serenade for You"
PERFORMER "Matan Klein Ensemble"
REM COMPOSER ""
INDEX 00 03:41:29
FILE "09 - A Serenade for You.wav" WAVE
INDEX 01 00:00:00
TRACK 10 AUDIO
TITLE "An Umbrella for Two"
PERFORMER "Matan Klein Ensemble"
REM COMPOSER ""
INDEX 00 06:24:29
FILE "10 - An Umbrella for Two.wav" WAVE
INDEX 01 00:00:00
TRACK 11 AUDIO
TITLE "Hide and Seek"
PERFORMER "Matan Klein Ensemble"
REM COMPOSER ""
INDEX 00 03:33:44
FILE "11 - Hide and Seek.wav" WAVE
INDEX 01 00:00:00
 
Лог проверки качества

 
Матрица
 
Состав
Mattan Klein - Flute, Arrangements
Ella Tadmor - All Vocals
Avri Borochov - Bass
Gilad Dobrecky - Percussion
Yoav Polachek - Piano and Keyboard
Tom Oren - Piano and Keyboard
Yuval Lion - Drums
Roy Oliel - Drums
Ilan Tsamir - Drums
Ofer Ganor - Guitar
Amos Hoffman - Guitar and Oud
Gabi Lapid - Guitar
Ezequiel Hezi Jait - Guitar

22:50
306
Нет комментариев. Ваш будет первым!