Поиск

(World Fusion/ Jazz-Pop/ Vocal Jazz) [CD] Pink Martini - Je Dis Oui! - 2016, FLAC (image+.cue), lossless

(World Fusion/ Jazz-Pop/ Vocal Jazz) [CD] Pink Martini - Je Dis Oui! - 2016, FLAC (image+.cue), lossless
Треклист:
Pink Martini / Je Dis Oui!
Жанр: World Fusion/ Jazz-Pop/ Vocal Jazz
Носитель: CD
Страна-производитель диска (релиза): Russia
Год издания: 2016
Издатель (лейбл): Time Blues
Аудиокодек: FLAC (*.flac)
Тип рипа: image+.cue
Битрейт аудио: lossless
Продолжительность: 51'39''
Источник (релизер): RedHotBlues
Наличие сканов в содержимом раздачи: да
Треклист:
CD: Pink Martini - Je Dis Oui!
01. Joli Garçon [0:03:18.26]
02. The Butterfly Song [0:02:47.14]
03. Kaj Kolah Kahn [0:03:10.69]
04. Ov Sirun Sirun [0:03:03.03]
05. Love For Sale [0:04:03.29]
06. Solidão [0:02:31.02]
07. Al Bint Al Shalabiya [0:03:14.61]
08. Souvenir [0:02:43.61]
09. Aşkim Bahardi [0:03:11.70]
10. Finnisma Di [0:05:41.09]
11. Segundo [0:04:10.36]
12. Blue Moon [0:04:57.14]
13. Fini La Musique [0:02:45.07]
14. Pata Pata [0:04:00.18]
15. Serenade [0:01:59.07]
 
Лог создания рипа
Exact Audio Copy V1.1 from 23. June 2015
Отчёт EAC об извлечении, выполненном 27. декабря 2016, 20:18
Pink Martini / Je Dis Oui!
Дисковод: ASUS DRW-22B3S Adapter: 1 ID: 2
Режим чтения : Достоверность
Использование точного потока : Да
Отключение кэша аудио : Да
Использование указателей C2 : Нет
Коррекция смещения при чтении : 6
Способность читать области Lead-in и Lead-out : Нет
Заполнение пропущенных сэмплов тишиной : Да
Удаление блоков с тишиной в начале и конце : Нет
При вычислениях CRC использовались нулевые сэмплы : Да
Интерфейс : Встроенный Win32-интерфейс для Win NT/2000
Выходной формат : Пользовательский кодировщик
Выбранный битрейт : 768 kBit/s
Качество : Высокий
Добавление ID3-тега : Нет
Утилита сжатия : C:\Program Files\Exact Audio Copy\FLAC\FLAC.EXE
Дополнительные параметры : -6 -V -T "ARTIST=%artist%" -T "TITLE=%title%" -T "ALBUM=%albumtitle%" -T "DATE=%year%" -T "TRACKNUMBER=%tracknr%" -T "GENRE=%genre%" -T "COMMENT=%comment%" -T "BAND=%albuminterpret%" -T "ALBUMARTIST=%albuminterpret%" -T "COMPOSER=%composer%" %haslyrics%--tag-from-file=LYRICS="%lyricsfile%"%haslyrics% -T "DISCNUMBER=%cdnumber%" -T "TOTALDISCS=%totalcds%" -T "TOTALTRACKS=%numtracks%" %hascover%--picture="%coverfile%"%hascover% %source% -o %dest%
TOC извлечённого CD
Трек | Старт | Длительность | Начальный сектор | Конечный сектор
---------------------------------------------------------------------
1 | 0:00.00 | 3:18.26 | 0 | 14875
2 | 3:18.26 | 2:47.14 | 14876 | 27414
3 | 6:05.40 | 3:10.69 | 27415 | 41733
4 | 9:16.34 | 3:03.03 | 41734 | 55461
5 | 12:19.37 | 4:03.29 | 55462 | 73715
6 | 16:22.66 | 2:31.02 | 73716 | 85042
7 | 18:53.68 | 3:14.61 | 85043 | 99653
8 | 22:08.54 | 2:43.61 | 99654 | 111939
9 | 24:52.40 | 3:11.70 | 111940 | 126334
10 | 28:04.35 | 5:41.09 | 126335 | 151918
11 | 33:45.44 | 4:10.36 | 151919 | 170704
12 | 37:56.05 | 4:57.14 | 170705 | 192993
13 | 42:53.19 | 2:45.07 | 192994 | 205375
14 | 45:38.26 | 4:00.18 | 205376 | 223393
15 | 49:38.44 | 1:59.07 | 223394 | 232325
Характеристики диапазона извлечения и сообщения об ошибках
Выбранный диапазон
Имя файла D:\New Uploads 01.12.2016\Pink Martini - Je Dis Oui! - 2016 51'39''\Pink Martini - Je Dis Oui!.wav
Пиковый уровень 100.0 %
Скорость извлечения 8.3 X
Качество диапазона 100.0 %
CRC теста 8ED5D834
CRC копии 8ED5D834
Копирование... OK
Ошибок не произошло
Конец отчёта
---- CUETools DB Plugin V2.1.6
[CTDB TOCID: vmKLnSM.tFzJUtLCuXynAK1j36s-] found
Submit result: vmKLnSM.tFzJUtLCuXynAK1j36s- has been confirmed
Track | CTDB Status
1 | (27/27) Accurately ripped
2 | (27/27) Accurately ripped
3 | (27/27) Accurately ripped
4 | (27/27) Accurately ripped
5 | (27/27) Accurately ripped
6 | (27/27) Accurately ripped
7 | (27/27) Accurately ripped
8 | (27/27) Accurately ripped
9 | (27/27) Accurately ripped
10 | (27/27) Accurately ripped
11 | (27/27) Accurately ripped
12 | (27/27) Accurately ripped
13 | (27/27) Accurately ripped
14 | (27/27) Accurately ripped
15 | (27/27) Accurately ripped
==== Контрольная сумма отчёта 9B2853EB23170E0BA442CA0F152AF4F0F92A4F4C683D0321C7579E18BD10EC42 ====
 
Содержание индексной карты (.CUE)
REM GENRE Lounge
REM DATE 2016
REM DISCID D00C190F
REM COMMENT "ExactAudioCopy v1.1"
PERFORMER "Pink Martini"
TITLE "Je Dis Oui!"
FILE "Pink Martini - Je Dis Oui!.flac" WAVE
TRACK 01 AUDIO
TITLE "Joli Garcon"
PERFORMER "Pink Martini"
INDEX 01 00:00:00
TRACK 02 AUDIO
TITLE "The Butterfly Song"
PERFORMER "Pink Martini"
INDEX 01 03:18:26
TRACK 03 AUDIO
TITLE "Kaj Kolah Kahn"
PERFORMER "Pink Martini"
INDEX 01 06:05:40
TRACK 04 AUDIO
TITLE "Ov Sirun Sirun"
PERFORMER "Pink Martini"
INDEX 01 09:16:34
TRACK 05 AUDIO
TITLE "Love For Sale"
PERFORMER "Pink Martini"
INDEX 01 12:19:37
TRACK 06 AUDIO
TITLE "Solidao"
PERFORMER "Pink Martini"
INDEX 01 16:22:66
TRACK 07 AUDIO
TITLE "Al Bint Al Shalabiya"
PERFORMER "Pink Martini"
INDEX 01 18:53:68
TRACK 08 AUDIO
TITLE "Souvenir"
PERFORMER "Pink Martini"
INDEX 01 22:08:54
TRACK 09 AUDIO
TITLE "Askim Bahardi"
PERFORMER "Pink Martini"
INDEX 01 24:52:40
TRACK 10 AUDIO
TITLE "Finnisma Di"
PERFORMER "Pink Martini"
INDEX 01 28:04:35
TRACK 11 AUDIO
TITLE "Segundo"
PERFORMER "Pink Martini"
INDEX 01 33:45:44
TRACK 12 AUDIO
TITLE "Blue Moon"
PERFORMER "Pink Martini"
INDEX 01 37:56:05
TRACK 13 AUDIO
TITLE "Fini La Musique"
PERFORMER "Pink Martini"
INDEX 01 42:53:19
TRACK 14 AUDIO
TITLE "Pata Pata"
PERFORMER "Pink Martini"
INDEX 01 45:38:26
TRACK 15 AUDIO
TITLE "Serenade"
PERFORMER "Pink Martini"
INDEX 01 49:38:44
 
Лог проверки качества
-----------------------
DON'T MODIFY THIS FILE
-----------------------
PERFORMER: auCDtect Task Manager, ver. 1.5.1RC4 build 1.5.1.5
Copyright (c) 2008-2010 y-soft. All rights reserved
http://y-soft.org
ANALYZER: auCDtect: CD records authenticity detector, version 0.8.2
Copyright (c) 2004 Oleg Berngardt. All rights reserved.
Copyright (c) 2004 Alexander Djourik. All rights reserved.
FILE: Pink Martini - Je Dis Oui!.flac
Size: 311949523 Hash: EC680C7CCEE9D8233CA530E81D29F1D6 Accuracy: -m0
Conclusion: CDDA 100%
Signature: 428209127666F2E0D7EA83F08743F541A2DEC3E2
Доп. информация: Тут "сомнения" есть :
http://rutracker.org/forum/viewtopic.php?t=5300416
Pink Martini lossless
http://rutracker.org/forum/tracker.php?nm=Pink%20Martini%20%20lossless
С наступающим Новым Годом!
22:44
408
Нет комментариев. Ваш будет первым!