Поиск

(World Fusion, Jazz-Funk) [CD] Don Cherry - Home Boy - 1985, FLAC (tracks+.cue), lossless

(World Fusion, Jazz-Funk) [CD] Don Cherry - Home Boy - 1985, FLAC (tracks+.cue), lossless
Don Cherry - Home Boy Жанр: World Fusion, Jazz-Funk
Носитель: CD
Год издания: 1985
Издатель (лейбл): Mosquite/Katabami/Barclay
Номер по каталогу: 827 488-2
Аудиокодек: FLAC (*.flac)
Тип рипа: tracks+.cue
Битрейт аудио: lossless
Продолжительность: 40:57
Источник (релизер): ruskaval
Наличие сканов в содержимом раздачи: да
Треклист:
01. Butterfly Friend (3:45)
02. I Walk (3:12)
03. Rappin Recipe (6:48)
04. Reggae To The High Tower (4:11)
05. Art Deco (2:53)
06. Call Me (4:36)
07. Treat Your Lady Right (6:09)
08. Alphabet City (3:43)
09. Bamako Love (5:41)
Personnel:
Don Cherry - pocket trumpet, vocals, doussn’ gouni, piano, synthesizer, melodica
Ramuntcho Matta - guitar
Jannick Top - bass
Negrito Trasante - bongos, congas, talking drum, rhythm box
Polo Lombardo - konks
Claude Salmieri - drums
Fil Mong - bass
Jean-Pierre Coco - congas
Abdoulaye Prosper Niang - drums
Elli Medeiros - backing vocals
 
 
Об альбоме (сборнике)
Very Rare 1985 release by the legendary Don Cherry. The connection between the spacey jazz trumpet of Don Cherry, and the later urban funk of his daughter Nenah, always seems a bit weak – until you hear this 1985 effort, which has Cherry working in a strange mix of contemporary rhythms and his older funkier styles. Cherry actually lays down vocals on a number of tracks, in a self conscious bluesy sort of way that's almost in a pomo kitschy style. The effect doesn't always work, but there's more than a few interesting moments on the LP. Titles include "Art Deco", "Call Me", "Rappin Recipie", and "Treat Your Lady Right".

 
Лог создания рипа
Exact Audio Copy V0.99 prebeta 4 from 23. January 2008
EAC extraction logfile from 1. September 2009, 11:04
Don Cherry / Home Boy
Used drive : TSSTcorpCDDVDW SH-S203N Adapter: 0 ID: 2
Read mode : Secure
Utilize accurate stream : Yes
Defeat audio cache : Yes
Make use of C2 pointers : No
Read offset correction : 6
Overread into Lead-In and Lead-Out : No
Fill up missing offset samples with silence : Yes
Delete leading and trailing silent blocks : No
Null samples used in CRC calculations : Yes
Used interface : Installed external ASPI interface
Gap handling : Appended to previous track
Used output format : User Defined Encoder
Selected bitrate : 768 kBit/s
Quality : High
Add ID3 tag : No
Command line compressor : C:\Program Files\Exact Audio Copy\Flac\flac.exe
Additional command line options : -8 -V -T "ARTIST=%a" -T "TITLE=%t" -T "ALBUM=%g" -T "DATE=%y" -T "TRACKNUMBER=%n" -T "TOTALTRACKS=%x" -T "GENRE=%m" -T "ALBUMARTIST=%v" -T "ALBUM ARTIST=%v" -T "COMMENT=EAC V0.99 pb4, Secure Mode, Test & Copy, AccurateRip,
TOC of the extracted CD
Track | Start | Length | Start sector | End sector
---------------------------------------------------------
1 | 0:00.33 | 3:44.55 | 33 | 16887
2 | 3:45.13 | 3:11.60 | 16888 | 31272
3 | 6:56.73 | 6:48.30 | 31273 | 61902
4 | 13:45.28 | 4:11.12 | 61903 | 80739
5 | 17:56.40 | 2:52.55 | 80740 | 93694
6 | 20:49.20 | 4:35.50 | 93695 | 114369
7 | 25:24.70 | 6:08.53 | 114370 | 142022
8 | 31:33.48 | 3:43.02 | 142023 | 158749
9 | 35:16.50 | 5:41.03 | 158750 | 184327
Track 1
Filename J:\New Rips\Don Cherry - Home Boy (1985) [FLAC] {Barclay}\01 - Butterfly Friend.wav
Pre-gap length 0:00:02.44
Peak level 76.3 %
Track quality 100.0 %
Test CRC EDD0291D
Copy CRC EDD0291D
Accurately ripped (confidence 1) [5DE5E017]
Copy OK
Track 2
Filename J:\New Rips\Don Cherry - Home Boy (1985) [FLAC] {Barclay}\02 - I Walk.wav
Pre-gap length 0:00:00.84
Peak level 100.0 %
Track quality 100.0 %
Test CRC 4C03986F
Copy CRC 4C03986F
Accurately ripped (confidence 1) [26F6A2E1]
Copy OK
Track 3
Filename J:\New Rips\Don Cherry - Home Boy (1985) [FLAC] {Barclay}\03 - Rappin Recipe.wav
Pre-gap length 0:00:00.44
Peak level 100.0 %
Track quality 100.0 %
Test CRC 617A3854
Copy CRC 617A3854
Accurately ripped (confidence 1) [1BCF4099]
Copy OK
Track 4
Filename J:\New Rips\Don Cherry - Home Boy (1985) [FLAC] {Barclay}\04 - Reggae To The High Tower.wav
Pre-gap length 0:00:01.26
Peak level 100.0 %
Track quality 100.0 %
Test CRC 3857ABC7
Copy CRC 3857ABC7
Accurately ripped (confidence 1) [5618182C]
Copy OK
Track 5
Filename J:\New Rips\Don Cherry - Home Boy (1985) [FLAC] {Barclay}\05 - Art Deco.wav
Pre-gap length 0:00:02.89
Peak level 41.7 %
Track quality 100.0 %
Test CRC 371B2A55
Copy CRC 371B2A55
Accurately ripped (confidence 1) [C8C91849]
Copy OK
Track 6
Filename J:\New Rips\Don Cherry - Home Boy (1985) [FLAC] {Barclay}\06 - Call Me.wav
Pre-gap length 0:00:00.93
Peak level 99.8 %
Track quality 100.0 %
Test CRC 89BBA77F
Copy CRC 89BBA77F
Accurately ripped (confidence 1) [8455D91C]
Copy OK
Track 7
Filename J:\New Rips\Don Cherry - Home Boy (1985) [FLAC] {Barclay}\07 - Treat Your Lady Right.wav
Pre-gap length 0:00:01.53
Peak level 100.0 %
Track quality 100.0 %
Test CRC D6B27A5D
Copy CRC D6B27A5D
Accurately ripped (confidence 1) [09840D1E]
Copy OK
Track 8
Filename J:\New Rips\Don Cherry - Home Boy (1985) [FLAC] {Barclay}\08 - Alphabet City.wav
Pre-gap length 0:00:01.44
Peak level 100.0 %
Track quality 100.0 %
Test CRC 32A22726
Copy CRC 32A22726
Accurately ripped (confidence 1) [0A68FC5C]
Copy OK
Track 9
Filename J:\New Rips\Don Cherry - Home Boy (1985) [FLAC] {Barclay}\09 - Bamako Love.wav
Pre-gap length 0:00:02.29
Peak level 78.6 %
Track quality 99.9 %
Test CRC 0E7272D8
Copy CRC 0E7272D8
Accurately ripped (confidence 1) [8A2D04AF]
Copy OK
All tracks accurately ripped
No errors occurred
End of status report
 
Содержание индексной карты (.CUE)
REM GENRE Jazz
REM DATE 1985
REM DISCID 75099909
REM COMMENT "ExactAudioCopy v0.99pb4"
PERFORMER "Don Cherry"
TITLE "Home Boy (1985)"
FILE "01 - Butterfly Friend.wav" WAVE
TRACK 01 AUDIO
TITLE "Butterfly Friend"
PERFORMER "Don Cherry"
FLAGS PRE
PREGAP 00:00:33
INDEX 01 00:00:00
TRACK 02 AUDIO
TITLE "I Walk"
PERFORMER "Don Cherry"
FLAGS PRE
INDEX 00 03:43:67
FILE "02 - I Walk.wav" WAVE
INDEX 01 00:00:00
TRACK 03 AUDIO
TITLE "Rappin Recipe"
PERFORMER "Don Cherry"
FLAGS PRE
INDEX 00 03:11:27
FILE "03 - Rappin Recipe.wav" WAVE
INDEX 01 00:00:00
TRACK 04 AUDIO
TITLE "Reggae To The High Tower"
PERFORMER "Don Cherry"
FLAGS PRE
INDEX 00 06:47:10
FILE "04 - Reggae To The High Tower.wav" WAVE
INDEX 01 00:00:00
TRACK 05 AUDIO
TITLE "Art Deco"
PERFORMER "Don Cherry"
FLAGS PRE
INDEX 00 04:08:20
FILE "05 - Art Deco.wav" WAVE
INDEX 01 00:00:00
TRACK 06 AUDIO
TITLE "Call Me"
PERFORMER "Don Cherry"
FLAGS PRE
INDEX 00 02:51:60
FILE "06 - Call Me.wav" WAVE
INDEX 01 00:00:00
TRACK 07 AUDIO
TITLE "Treat Your Lady Right"
PERFORMER "Don Cherry"
FLAGS PRE
INDEX 00 04:34:10
FILE "07 - Treat Your Lady Right.wav" WAVE
INDEX 01 00:00:00
TRACK 08 AUDIO
TITLE "Alphabet City"
PERFORMER "Don Cherry"
FLAGS PRE
INDEX 00 06:07:20
FILE "08 - Alphabet City.wav" WAVE
INDEX 01 00:00:00
TRACK 09 AUDIO
TITLE "Bamako Love"
PERFORMER "Don Cherry"
FLAGS PRE
INDEX 00 03:40:55
FILE "09 - Bamako Love.wav" WAVE
INDEX 01 00:00:00
00:21
293
Нет комментариев. Ваш будет первым!