Поиск

(World Fusion / Jazz Big Band / Contemporary Jazz) Shibusa Shirazu [渋響] - Shibuki - 2007, FLAC (tracks+.cue), lossless

Треклист:
Shibusa Shirazu [渋響] / Shibuki
Жанр: World Fusion / Jazz Big Band / Contemporary Jazz
Год издания: 2007
Страна исполнителя (группы): Japan
Аудиокодек: FLAC (*.flac)
Тип рипа: tracks+.cue
Битрейт аудио: lossless
Продолжительность: 66:34 min
Источник (релизер): kivius
Наличие сканов в содержимом раздачи:
Треклист:
1. Fight on the corner. 4:37
2. 鰤風 - Hamachikaze. 8:35
3. Song For One. 8:26
4. Dust song. 7:50
5. 有限会社中嶋材木店 - Nakajimazaimokuten Co., Ltd. 4:43
6. P-Chan Rearrange. 5:14
7. We are a Fisherman Band. 8:44
8. theme for Inuhime. 10:25
9. theme for Inuhime. 7:55
 
Лог создания рипа
X Lossless Decoder version 20130127 (142.3)
XLD extraction logfile from 2013-03-29 18:13:33 +0100
渋さ知らズ Shibusa Shirazu Orchestra / 渋響 Shibuki
Used drive : OPTIARC DVD RW AD-5670S (revision 2AHH)
Media type : Pressed CD
Ripper mode : XLD Secure Ripper
Disable audio cache : OK for the drive with a cache less than 1375KiB
Make use of C2 pointers : NO
Read offset correction : 48
Max retry count : 20
Gap status : Analyzed, Appended (except HTOA)
TOC of the extracted CD
Track | Start | Length | Start sector | End sector
---------------------------------------------------------
1 | 00:00:00 | 04:37:69 | 0 | 20843
2 | 04:37:69 | 08:35:36 | 20844 | 59504
3 | 13:13:30 | 08:26:52 | 59505 | 97506
4 | 21:40:07 | 07:50:25 | 97507 | 132781
5 | 29:30:32 | 04:43:28 | 132782 | 154034
6 | 34:13:60 | 05:14:65 | 154035 | 177649
7 | 39:28:50 | 08:44:00 | 177650 | 216949
8 | 48:12:50 | 10:25:00 | 216950 | 263824
9 | 58:37:50 | 07:55:45 | 263825 | 299494
AccurateRip Summary (DiscID: 0015b501-00a0eebd-810f9909)
Track 01 : OK (v1+v2, confidence 5/5)
Track 02 : OK (v1+v2, confidence 5/5)
Track 03 : OK (v1+v2, confidence 5/5)
Track 04 : OK (v1+v2, confidence 4/4)
Track 05 : OK (v1+v2, confidence 4/4)
Track 06 : OK (v1+v2, confidence 5/5)
Track 07 : OK (v1+v2, confidence 5/5)
Track 08 : OK (v1+v2, confidence 4/4)
Track 09 : OK (v1+v2, confidence 4/4)
->All tracks accurately ripped.
All Tracks
Album gain : -7.62 dB
Peak : 0.989044
Statistics
Read error : 0
Jitter error (maybe fixed) : 0
Retry sector count : 0
Damaged sector count : 0
Track 01
Filename : /Users/Saila/Music/Shibusa Shirazu Orchestra - Shibuki (2007) [Japan]/渋さ知らズ Shibusa Shirazu Orchestra - 渋響 Shibuki (2007) [FLAC]/01 Fight on the corner .flac
Pre-gap length : 00:02:00
Track gain : -7.94 dB
Peak : 0.989014
CRC32 hash (test run) : B4A5AF9A
CRC32 hash : B4A5AF9A
CRC32 hash (skip zero) : AD49DC47
AccurateRip v1 signature : 8D8EA0B1
AccurateRip v2 signature : 06C3AB31
->Accurately ripped (v1+v2, confidence 3+2/5)
Statistics
Read error : 0
Jitter error (maybe fixed) : 0
Retry sector count : 0
Damaged sector count : 0
Track 02
Filename : /Users/Saila/Music/Shibusa Shirazu Orchestra - Shibuki (2007) [Japan]/渋さ知らズ Shibusa Shirazu Orchestra - 渋響 Shibuki (2007) [FLAC]/02 鰤風 ~Hamachikaze~.flac
Track gain : -7.72 dB
Peak : 0.988983
CRC32 hash (test run) : DEC59F20
CRC32 hash : DEC59F20
CRC32 hash (skip zero) : F8304F0A
AccurateRip v1 signature : 13D5AF16
AccurateRip v2 signature : 2CF6677D
->Accurately ripped (v1+v2, confidence 3+2/5)
Statistics
Read error : 0
Jitter error (maybe fixed) : 0
Retry sector count : 0
Damaged sector count : 0
Track 03
Filename : /Users/Saila/Music/Shibusa Shirazu Orchestra - Shibuki (2007) [Japan]/渋さ知らズ Shibusa Shirazu Orchestra - 渋響 Shibuki (2007) [FLAC]/03 a song for One .flac
Pre-gap length : 00:01:35
Track gain : -7.39 dB
Peak : 0.988983
CRC32 hash (test run) : B5887700
CRC32 hash : B5887700
CRC32 hash (skip zero) : 7EF2B62C
AccurateRip v1 signature : A7EEF4B0
AccurateRip v2 signature : 9EA4719B
->Accurately ripped (v1+v2, confidence 3+2/5)
Statistics
Read error : 0
Jitter error (maybe fixed) : 0
Retry sector count : 0
Damaged sector count : 0
Track 04
Filename : /Users/Saila/Music/Shibusa Shirazu Orchestra - Shibuki (2007) [Japan]/渋さ知らズ Shibusa Shirazu Orchestra - 渋響 Shibuki (2007) [FLAC]/04 Dust song.flac
Pre-gap length : 00:02:65
Track gain : -7.29 dB
Peak : 0.989044
CRC32 hash (test run) : 91EB4CD3
CRC32 hash : 91EB4CD3
CRC32 hash (skip zero) : AB03A736
AccurateRip v1 signature : FA171B90
AccurateRip v2 signature : AACBF598
->Accurately ripped (v1+v2, confidence 2+2/4)
Statistics
Read error : 0
Jitter error (maybe fixed) : 0
Retry sector count : 0
Damaged sector count : 0
Track 05
Filename : /Users/Saila/Music/Shibusa Shirazu Orchestra - Shibuki (2007) [Japan]/渋さ知らズ Shibusa Shirazu Orchestra - 渋響 Shibuki (2007) [FLAC]/05 有限会社中嶋材木店 ~Nakajimazaimokuten Co., Ltd.~.flac
Pre-gap length : 00:01:72
Track gain : -7.66 dB
Peak : 0.988983
CRC32 hash (test run) : 057EF00A
CRC32 hash : 057EF00A
CRC32 hash (skip zero) : 725BAAE4
AccurateRip v1 signature : 5DFC60D0
AccurateRip v2 signature : 3EE20CDF
->Accurately ripped (v1+v2, confidence 2+2/4)
Statistics
Read error : 0
Jitter error (maybe fixed) : 0
Retry sector count : 0
Damaged sector count : 0
Track 06
Filename : /Users/Saila/Music/Shibusa Shirazu Orchestra - Shibuki (2007) [Japan]/渋さ知らズ Shibusa Shirazu Orchestra - 渋響 Shibuki (2007) [FLAC]/06 P-Chan ~Rearrange~.flac
Pre-gap length : 00:05:60
Track gain : 0.64 dB
Peak : 0.781311
CRC32 hash (test run) : 27136DD7
CRC32 hash : 27136DD7
CRC32 hash (skip zero) : 4BB213DA
AccurateRip v1 signature : 3FEDC28E
AccurateRip v2 signature : 258553E9
->Accurately ripped (v1+v2, confidence 3+2/5)
Statistics
Read error : 0
Jitter error (maybe fixed) : 0
Retry sector count : 0
Damaged sector count : 0
Track 07
Filename : /Users/Saila/Music/Shibusa Shirazu Orchestra - Shibuki (2007) [Japan]/渋さ知らズ Shibusa Shirazu Orchestra - 渋響 Shibuki (2007) [FLAC]/07 We are a Fishman Band .flac
Pre-gap length : 00:02:45
Track gain : -8.43 dB
Peak : 0.989014
CRC32 hash (test run) : 03EAD949
CRC32 hash : 03EAD949
CRC32 hash (skip zero) : 6FA4826B
AccurateRip v1 signature : 00C65FE1
AccurateRip v2 signature : 6E16FDB1
->Accurately ripped (v1+v2, confidence 3+2/5)
Statistics
Read error : 0
Jitter error (maybe fixed) : 0
Retry sector count : 0
Damaged sector count : 0
Track 08
Filename : /Users/Saila/Music/Shibusa Shirazu Orchestra - Shibuki (2007) [Japan]/渋さ知らズ Shibusa Shirazu Orchestra - 渋響 Shibuki (2007) [FLAC]/08 a theme for Inuhime .flac
Pre-gap length : 00:03:28
Track gain : -6.19 dB
Peak : 0.989014
CRC32 hash (test run) : EAFA68B0
CRC32 hash : EAFA68B0
CRC32 hash (skip zero) : 1AA33A1F
AccurateRip v1 signature : ECB1C2A8
AccurateRip v2 signature : 866B6615
->Accurately ripped (v1+v2, confidence 2+2/4)
Statistics
Read error : 0
Jitter error (maybe fixed) : 0
Retry sector count : 0
Damaged sector count : 0
Track 09
Filename : /Users/Saila/Music/Shibusa Shirazu Orchestra - Shibuki (2007) [Japan]/渋さ知らズ Shibusa Shirazu Orchestra - 渋響 Shibuki (2007) [FLAC]/09 a theme for Inuhime .flac
Track gain : -8.08 dB
Peak : 0.989044
CRC32 hash (test run) : 13F979CC
CRC32 hash : 13F979CC
CRC32 hash (skip zero) : 2454D031
AccurateRip v1 signature : 00E8BDCB
AccurateRip v2 signature : 1CEA6FB2
->Accurately ripped (v1+v2, confidence 2+2/4)
Statistics
Read error : 0
Jitter error (maybe fixed) : 0
Retry sector count : 0
Damaged sector count : 0
No errors occurred
End of status report
 
Содержание индексной карты (.CUE)
TITLE "渋響 Shibuki"
PERFORMER "渋さ知らズ Shibusa Shirazu Orchestra"
CATALOG 4544738202009
REM GENRE "Jazz"
REM DATE "2007"
REM DISCID 810F9909
REM REPLAYGAIN_ALBUM_GAIN -7.62 dB
REM REPLAYGAIN_ALBUM_PEAK 0.989044
FILE "01 Fight on the corner .flac" WAVE
TRACK 01 AUDIO
TITLE "Fight on the corner "
ISRC JPB600666501
REM REPLAYGAIN_TRACK_GAIN -7.94 dB
REM REPLAYGAIN_TRACK_PEAK 0.989014
INDEX 01 00:00:00
FILE "02 鰤風 ~Hamachikaze~.flac" WAVE
TRACK 02 AUDIO
TITLE "鰤風 ~Hamachikaze~"
ISRC JPB600666502
REM REPLAYGAIN_TRACK_GAIN -7.72 dB
REM REPLAYGAIN_TRACK_PEAK 0.988983
INDEX 01 00:00:00
TRACK 03 AUDIO
TITLE "a song for One "
ISRC JPB600666503
REM REPLAYGAIN_TRACK_GAIN -7.39 dB
REM REPLAYGAIN_TRACK_PEAK 0.988983
INDEX 00 08:34:01
FILE "03 a song for One .flac" WAVE
INDEX 01 00:00:00
TRACK 04 AUDIO
TITLE "Dust song"
ISRC JPB600666504
REM REPLAYGAIN_TRACK_GAIN -7.29 dB
REM REPLAYGAIN_TRACK_PEAK 0.989044
INDEX 00 08:23:62
FILE "04 Dust song.flac" WAVE
INDEX 01 00:00:00
TRACK 05 AUDIO
TITLE "有限会社中嶋材木店 ~Nakajimazaimokuten Co., Ltd.~"
ISRC JPB600666505
REM REPLAYGAIN_TRACK_GAIN -7.66 dB
REM REPLAYGAIN_TRACK_PEAK 0.988983
INDEX 00 07:48:28
FILE "05 有限会社中嶋材木店 ~Nakajimazaimokuten Co., Ltd.~.flac" WAVE
INDEX 01 00:00:00
TRACK 06 AUDIO
TITLE "P-Chan ~Rearrange~"
ISRC JPB600666506
REM REPLAYGAIN_TRACK_GAIN 0.64 dB
REM REPLAYGAIN_TRACK_PEAK 0.781311
INDEX 00 04:37:43
FILE "06 P-Chan ~Rearrange~.flac" WAVE
INDEX 01 00:00:00
TRACK 07 AUDIO
TITLE "We are a Fishman Band "
ISRC JPB600666507
REM REPLAYGAIN_TRACK_GAIN -8.43 dB
REM REPLAYGAIN_TRACK_PEAK 0.989014
INDEX 00 05:12:20
FILE "07 We are a Fishman Band .flac" WAVE
INDEX 01 00:00:00
TRACK 08 AUDIO
TITLE "a theme for Inuhime "
ISRC JPB600666508
REM REPLAYGAIN_TRACK_GAIN -6.19 dB
REM REPLAYGAIN_TRACK_PEAK 0.989014
INDEX 00 08:40:47
FILE "08 a theme for Inuhime .flac" WAVE
INDEX 01 00:00:00
FILE "09 a theme for Inuhime .flac" WAVE
TRACK 09 AUDIO
TITLE "a theme for Inuhime "
ISRC JPB600666509
REM REPLAYGAIN_TRACK_GAIN -8.08 dB
REM REPLAYGAIN_TRACK_PEAK 0.989044
INDEX 01 00:00:00
 
Лог проверки качества
-----------------------
DON'T MODIFY THIS FILE
-----------------------
PERFORMER: auCDtect Task Manager, ver. 1.6.0 RC1 build 1.6.0.1
Copyright (c) 2008-2010 y-soft. All rights reserved
http://y-soft.org
ANALYZER: auCDtect: CD records authenticity detector, version 0.8.2
Copyright (c) 2004 Oleg Berngardt. All rights reserved.
Copyright (c) 2004 Alexander Djourik. All rights reserved.
FILE: 01 Fight on the corner .flac
Size: 34355026 Hash: 9503EAB5A2ED9F384B060B98DF784BD9 Accuracy: -m0
Conclusion: CDDA 100%
Signature: 5DE47EC032CA9B6E416997487A52848CA79F8C33
FILE: 02 鰤風 ~Hamachikaze~.flac
Size: 62935532 Hash: 0F2510DADF97CC6E661E28E9E03A92F0 Accuracy: -m0
Conclusion: CDDA 100%
Signature: 6FD652C55DEAA21FED8BC397AF208C9A2A649940
FILE: 03 a song for One .flac
Size: 57494018 Hash: 7F4E4882861A9819E47403EE6A59E72C Accuracy: -m0
Conclusion: CDDA 100%
Signature: 8A927A9C48773CDCFD31180264196DEA084486FA
FILE: 04 Dust song.flac
Size: 54310441 Hash: B952E11A571D16934744416DE1A17A23 Accuracy: -m0
Conclusion: CDDA 100%
Signature: BF7926C56921AB6D37717116D57F4F402B8ECACE
FILE: 05 有限会社中嶋材木店 ~Nakajimazaimokuten Co., Ltd.~.flac
Size: 33512483 Hash: 90900D714F88A79E6D5E14F0C047F044 Accuracy: -m0
Conclusion: CDDA 100%
Signature: A344467820AD8AAB57A00D782BC924A0745BB1F9
FILE: 06 P-Chan ~Rearrange~.flac
Size: 22283170 Hash: 2FC365CB8BF238D98269E72D6218E632 Accuracy: -m0
Conclusion: MPEG 100%
Signature: 6B0437DED06CAFB35FA38F5BCEF0C945C1C38081
FILE: 07 We are a Fishman Band .flac
Size: 61856885 Hash: 87BC3D4708D32AFE2984E4E8EC8EA808 Accuracy: -m0
Conclusion: CDDA 100%
Signature: 3837DFFD84DCF27015712BA6C83298B934F7344E
FILE: 08 a theme for Inuhime .flac
Size: 71573439 Hash: 3B3FBF2929D8A115142CFEA5B91766CD Accuracy: -m0
Conclusion: CDDA 100%
Signature: 9AD4C81E1233E163BC3F437EC896620153A73DB7
FILE: 09 a theme for Inuhime .flac
Size: 56844634 Hash: 542099B7FBBB8664385474770B142104 Accuracy: -m0
Conclusion: CDDA 100%
Signature: FAFF7F3739A0ADC34ABF76FA456A49575D38D8FD
 
Состав
Daisuke Fuwa - Dando-list (Conductor)
Aya Murodate - Flute, Vocal
Yoichiro Kita - Trumpet
Mitsuhide Tatsumi - Trumpet
Keiko Komori - Soprano Sax
Yoshiyuki Kawaguchi - Alto Sax
Hideki Tachibana - Alto Sax
Hiroaki Katayama - Tenor Sax
Han Sato - Tenor Sax
Tetsu "Rima" Hirosawa - Tenor Sax
Akira Kito - Baritone Sax
Ryuichi Yoshida - Baritone Sax
Gideon Jukes - Tuba
Yasuyuki Takahashi - Trombone
Fumihiko Tamura - Trombone
Hiroyuki Otsuka - Electric Guitar
Ryoichi Saito - Electric Guitar
Fang Taeil - Electric Guitar
Hiroshi Higo - Electric Bass Guitar
Aki Ono - Electric Bass Guitar
Hiromichi Sakamoto - Cello
Sachiko Nakajima - Keyboards
Koichi Yamaguchi - Keyboards
Hitoshi Kuramochi - Drums
Jun Isobe - Drums
Masataka Fujikake - Drums
Mari Sekine - Percussions, Voice
Takayuki Matsumura - Percussion
17:11
368
Нет комментариев. Ваш будет первым!