Поиск

(World Fusion, Indian Jazz) [CD] Perry Robinson, Nana Vasconcelos, Badal Roy - Kundalini - 1978, FLAC (tracks+.cue), lossless

(World Fusion, Indian Jazz) [CD] Perry Robinson, Nana Vasconcelos, Badal Roy - Kundalini - 1978, FLAC (tracks+.cue), lossless
Треклист:
Perry Robinson, Nana Vasconcelos, Badal Roy / Kundalini
Жанр: World Fusion, Indian Jazz
Носитель: CD
Страна-производитель диска: Italy
Год издания: 1992
Издатель (лейбл): Improvising Artists Inc.
Номер по каталогу: 123856-2
Страна: US
Аудиокодек: FLAC (*.flac)
Тип рипа: tracks+.cue
Битрейт аудио: lossless
Продолжительность: 32:48
Источник (релизер): свой фирменный диск
Наличие сканов в содержимом раздачи:
Треклист:
1. Shenandoah (How I Long To Look Into Your Third I) 7:25
2. Kundalini 9:27
3. Always Backwards 15:45
 
Лог создания рипа
Exact Audio Copy V1.0 beta 3 from 29. August 2011
EAC extraction logfile from 15. July 2014, 17:42
Perry Robinson, Nana Vasconcelos, Badal Roy / Kundalini
Used drive : TSSTcorpCDDVDW SH-222AB Adapter: 1 ID: 0
Read mode : Secure
Utilize accurate stream : Yes
Defeat audio cache : Yes
Make use of C2 pointers : No
Read offset correction : 6
Overread into Lead-In and Lead-Out : No
Fill up missing offset samples with silence : Yes
Delete leading and trailing silent blocks : No
Null samples used in CRC calculations : Yes
Used interface : Installed external ASPI interface
Gap handling : Appended to previous track
Used output format : User Defined Encoder
Selected bitrate : 896 kBit/s
Quality : High
Add ID3 tag : No
Command line compressor : C:\Program Files\Exact Audio Copy\FLAC\FLAC.EXE
Additional command line options : -6 -V -T "ARTIST=%artist%" -T "TITLE=%title%" -T "ALBUM=%albumtitle%" -T "DATE=%year%" -T "TRACKNUMBER=%tracknr%" -T "GENRE=%genre%" -T "COMMENT=%comment%" -T "BAND=%albuminterpret%" -T "COMPOSER=%composer%" %haslyrics%--tag-from-file=LYRICS="%lyricsfile%"%haslyrics% -T "DISCNUMBER=%cdnumber%" -T "TOTALDISCS=%totalcds%" -T "TOTALTRACKS=%numtracks%" %hascover%--picture="%coverfile%"%hascover% %source% -o %dest%
TOC of the extracted CD
Track | Start | Length | Start sector | End sector
---------------------------------------------------------
1 | 0:00.33 | 7:32.00 | 33 | 33932
2 | 7:32.33 | 9:30.00 | 33933 | 76682
3 | 17:02.33 | 15:46.00 | 76683 | 147632
Track 1
Filename D:\zzz\01 - Shenandoah (How I Long To Look Into Your Third I).wav
Pre-gap length 0:00:02.33
Peak level 97.6 %
Extraction speed 2.9 X
Track quality 100.0 %
Test CRC D79EAFEF
Copy CRC D79EAFEF
Accurately ripped (confidence 1) [C66BA4D3] (AR v2)
Copy OK
Track 2
Filename D:\zzz\02 - Kundalini.wav
Peak level 96.9 %
Extraction speed 2.9 X
Track quality 100.0 %
Test CRC 8F853CF4
Copy CRC 8F853CF4
Accurately ripped (confidence 1) [928958D7] (AR v2)
Copy OK
Track 3
Filename D:\zzz\03 - Always Backwards.wav
Peak level 100.0 %
Extraction speed 3.0 X
Track quality 100.0 %
Test CRC D6A5F52C
Copy CRC D6A5F52C
Accurately ripped (confidence 1) [A56E4A38] (AR v2)
Copy OK
All tracks accurately ripped
No errors occurred
End of status report
==== Log checksum 7E7C728276F7EDB955B2CBD51F964135C73D68A798B2A8066A62D8CD5C2749BA ====
 
Содержание индексной карты (.CUE)
REM GENRE "World Fusion"
REM DATE 1978
REM DISCID 1607B003
REM COMMENT "ExactAudioCopy v1.0b3"
PERFORMER "Perry Robinson, Nana Vasconcelos, Badal Roy"
TITLE "Kundalini"
FILE "01 - Shenandoah (How I Long To Look Into Your Third I).wav" WAVE
TRACK 01 AUDIO
TITLE "Shenandoah (How I Long To Look Into Your Third I)"
PERFORMER "Perry Robinson, Nana Vasconcelos, Badal Roy"
PREGAP 00:00:33
INDEX 01 00:00:00
FILE "02 - Kundalini.wav" WAVE
TRACK 02 AUDIO
TITLE "Kundalini"
PERFORMER "Perry Robinson, Nana Vasconcelos, Badal Roy"
INDEX 01 00:00:00
FILE "03 - Always Backwards.wav" WAVE
TRACK 03 AUDIO
TITLE "Always Backwards"
PERFORMER "Perry Robinson, Nana Vasconcelos, Badal Roy"
INDEX 01 00:00:00
 
Лог проверки качества
d:\>d:\aucdtect -d/-m0 d:\zzz\*.wav
auCDtect: CD records authenticity detector, version 0.8.2
Copyright (c) 2004 Oleg Berngardt. All rights reserved.
Copyright (c) 2004 Alexander Djourik. All rights reserved.
------------------------------------------------------------
Processing file: [01. Shenandoah (How I Long To Look Into Your Third I).wav]
------------------------------------------------------------
This track looks like CDDA with probability 100%
------------------------------------------------------------
Processing file: [02. Kundalini.wav]
------------------------------------------------------------
This track looks like CDDA with probability 100%
------------------------------------------------------------
Processing file: [03. Always Backwards.wav]
------------------------------------------------------------
This track looks like CDDA with probability 99%
------------------------------------------------------------
Final Conclusion:
------------------------------------------------------------
These tracks looks like CDDA with probability 100%
Доп. информация:
 
Album Info & AMG Review
(Perry Robinson) - 1,2
(Perry Robinson - Badal Roy - Nana Vasconcelos) - 3
Recorded February 2 & 9, 1978 at Longtoe Studios, New York City
Recording engineer: John Bergen
Mixing engineer: David Baker
Producer: Paul Bley
Photos: Ray Ross
Cover image: Carol Goss, paik-able video synthesizer
Clarinetist Perry Robinson is heard at his best on "Shenandoah," an original duet with Badal Roy on tablas that finds Robinson looking backwards toward the New Orleans clarinet tradition while also playing quite adventurous. A second duo, "Kundalini," is more Indian-oriented while the lengthy "Always Backwards," a trio with Roy and percussionist Nana Vasconcelos, wanders a bit but is generally colorful. This CD reissue has less than 33 minutes of music, which keeps it from being essential, but it is one of the few Perry Robinson sets currently available.
 
Состав
Perry Robinson: clarinet
Badal Roy: tablas, woodblocks (2)
Nana Vasconcelos: birembau / shells / congas / afrikan talking (squeeze) drum / tambourine (3)
16:44
273
Нет комментариев. Ваш будет первым!