Поиск

(World Fusion, Indian Jazz) [CD] Badal Roy & Amit Chatterjee - Art Of The Duo (Endless Radiance) - 1997, FLAC (tracks+.cue), lossless

(World Fusion, Indian Jazz) [CD] Badal Roy & Amit Chatterjee - Art Of The Duo (Endless Radiance) - 1997, FLAC (tracks+.cue), lossless
Треклист:
Badal Roy & Amit Chatterjee / Art Of The Duo (Endless Radiance)
Жанр: World Fusion, Indian Jazz
Носитель: CD
Страна-производитель диска: Germany
Год издания: 1997
Издатель (лейбл): Tutu Records
Номер по каталогу: TUTU CD 888 178
Страна исполнителя (группы): India
Аудиокодек: FLAC (*.flac)
Тип рипа: tracks+.cue
Битрейт аудио: lossless
Продолжительность: 40:11
Источник (релизер): свой фирменный диск
Наличие сканов в содержимом раздачи:
Треклист:
1. Village Dance # One 4:02
2. Endless Radiance 8:09
3. The Origin 8:45
4. Geeta's Shuffle 4:07
5. Seven Past Midnight 5:54
6. Restless Moon 6:51
7. Village Dance / Going Home 2:12
 
Лог создания рипа
Exact Audio Copy V1.0 beta 3 from 29. August 2011
EAC extraction logfile from 26. July 2014, 13:22
Badal Roy & Amit Chatterjee / Art Of The Duo: Endless Radiance
Used drive : PIONEER DVD-RW DVR-115D Adapter: 0 ID: 0
Read mode : Secure
Utilize accurate stream : Yes
Defeat audio cache : Yes
Make use of C2 pointers : No
Read offset correction : 48
Overread into Lead-In and Lead-Out : No
Fill up missing offset samples with silence : Yes
Delete leading and trailing silent blocks : No
Null samples used in CRC calculations : Yes
Used interface : Installed external ASPI interface
Gap handling : Appended to previous track
Used output format : User Defined Encoder
Selected bitrate : 896 kBit/s
Quality : High
Add ID3 tag : No
Command line compressor : C:\Program Files\Exact Audio Copy\FLAC\FLAC.EXE
Additional command line options : -6 -V -T "ARTIST=%artist%" -T "TITLE=%title%" -T "ALBUM=%albumtitle%" -T "DATE=%year%" -T "TRACKNUMBER=%tracknr%" -T "GENRE=%genre%" -T "COMMENT=%comment%" -T "BAND=%albuminterpret%" -T "COMPOSER=%composer%" %haslyrics%--tag-from-file=LYRICS="%lyricsfile%"%haslyrics% -T "DISCNUMBER=%cdnumber%" -T "TOTALDISCS=%totalcds%" -T "TOTALTRACKS=%numtracks%" %hascover%--picture="%coverfile%"%hascover% %source% -o %dest%
TOC of the extracted CD
Track | Start | Length | Start sector | End sector
---------------------------------------------------------
1 | 0:00.50 | 4:03.52 | 50 | 18326
2 | 4:04.27 | 8:11.15 | 18327 | 55166
3 | 12:15.42 | 8:47.45 | 55167 | 94736
4 | 21:03.12 | 4:08.15 | 94737 | 113351
5 | 25:11.27 | 5:54.73 | 113352 | 139974
6 | 31:06.25 | 6:51.25 | 139975 | 170824
7 | 37:57.50 | 2:13.52 | 170825 | 180851
Track 1
Filename D:\zzz\01 - Village Dance # One.wav
Pre-gap length 0:00:02.50
Peak level 49.0 %
Extraction speed 3.8 X
Track quality 99.9 %
Test CRC 7EFE6B16
Copy CRC 7EFE6B16
Track not present in AccurateRip database
Copy OK
Track 2
Filename D:\zzz\02 - Endless Radiance.wav
Pre-gap length 0:00:00.52
Peak level 78.5 %
Extraction speed 5.3 X
Track quality 100.0 %
Test CRC 1FB1AB3A
Copy CRC 1FB1AB3A
Track not present in AccurateRip database
Copy OK
Track 3
Filename D:\zzz\03 - The Origin.wav
Pre-gap length 0:00:02.05
Peak level 86.1 %
Extraction speed 6.1 X
Track quality 100.0 %
Test CRC CC979118
Copy CRC CC979118
Track not present in AccurateRip database
Copy OK
Track 4
Filename D:\zzz\04 - Geeta's Shuffle.wav
Pre-gap length 0:00:01.37
Peak level 68.9 %
Extraction speed 6.2 X
Track quality 100.0 %
Test CRC 2BF889C8
Copy CRC 2BF889C8
Track not present in AccurateRip database
Copy OK
Track 5
Filename D:\zzz\05 - Seven Past Midnight.wav
Pre-gap length 0:00:02.07
Peak level 84.5 %
Extraction speed 6.8 X
Track quality 100.0 %
Test CRC CDBFDC24
Copy CRC CDBFDC24
Track not present in AccurateRip database
Copy OK
Track 6
Filename D:\zzz\06 - Restless Moon.wav
Pre-gap length 0:00:02.43
Peak level 87.6 %
Extraction speed 6.8 X
Track quality 99.9 %
Test CRC 947450DE
Copy CRC 947450DE
Track not present in AccurateRip database
Copy OK
Track 7
Filename D:\zzz\07 - Village Dance , Going Home.wav
Peak level 33.9 %
Extraction speed 6.4 X
Track quality 100.0 %
Test CRC C58406D7
Copy CRC C58406D7
Track not present in AccurateRip database
Copy OK
None of the tracks are present in the AccurateRip database
No errors occurred
End of status report
==== Log checksum 593844FBFA9696E60E60AA6CA4B24DE06E54102BC6CB8621B2A6E869139BCAD1 ====
 
Содержание индексной карты (.CUE)
REM GENRE "World Fusion"
REM DATE 1997
REM DISCID 62096B07
REM COMMENT "ExactAudioCopy v1.0b3"
PERFORMER "Badal Roy & Amit Chatterjee"
TITLE "Art Of The Duo: Endless Radiance"
FILE "01 - Village Dance # One.wav" WAVE
TRACK 01 AUDIO
TITLE "Village Dance # One"
PERFORMER "Badal Roy & Amit Chatterjee"
PREGAP 00:00:50
INDEX 01 00:00:00
TRACK 02 AUDIO
TITLE "Endless Radiance"
PERFORMER "Badal Roy & Amit Chatterjee"
INDEX 00 04:03:00
FILE "02 - Endless Radiance.wav" WAVE
INDEX 01 00:00:00
TRACK 03 AUDIO
TITLE "The Origin"
PERFORMER "Badal Roy & Amit Chatterjee"
INDEX 00 08:09:10
FILE "03 - The Origin.wav" WAVE
INDEX 01 00:00:00
TRACK 04 AUDIO
TITLE "Geeta's Shuffle"
PERFORMER "Badal Roy & Amit Chatterjee"
INDEX 00 08:46:08
FILE "04 - Geeta's Shuffle.wav" WAVE
INDEX 01 00:00:00
TRACK 05 AUDIO
TITLE "Seven Past Midnight"
PERFORMER "Badal Roy & Amit Chatterjee"
INDEX 00 04:06:08
FILE "05 - Seven Past Midnight.wav" WAVE
INDEX 01 00:00:00
TRACK 06 AUDIO
TITLE "Restless Moon"
PERFORMER "Badal Roy & Amit Chatterjee"
INDEX 00 05:52:30
FILE "06 - Restless Moon.wav" WAVE
INDEX 01 00:00:00
FILE "07 - Village Dance , Going Home.wav" WAVE
TRACK 07 AUDIO
TITLE "Village Dance / Going Home"
PERFORMER "Badal Roy & Amit Chatterjee"
INDEX 01 00:00:00
 
Лог проверки качества
d:\>d:\aucdtect -d/-m0 d:\zzz\*.wav
auCDtect: CD records authenticity detector, version 0.8.2
Copyright (c) 2004 Oleg Berngardt. All rights reserved.
Copyright (c) 2004 Alexander Djourik. All rights reserved.
------------------------------------------------------------
Processing file: [01. Village Dance # One.wav]
------------------------------------------------------------
This track looks like CDDA with probability 99%
------------------------------------------------------------
Processing file: [02. Endless Radiance.wav]
------------------------------------------------------------
This track looks like CDDA with probability 99%
------------------------------------------------------------
Processing file: [03. The Origin.wav]
------------------------------------------------------------
This track looks like CDDA with probability 100%
------------------------------------------------------------
Processing file: [04. Geeta's Shuffle.wav]
------------------------------------------------------------
This track looks like CDDA with probability 100%
------------------------------------------------------------
Processing file: [05. Seven Past Midnight.wav]
------------------------------------------------------------
This track looks like CDDA with probability 100%
------------------------------------------------------------
Processing file: [06. Restless Moon.wav]
------------------------------------------------------------
This track looks like CDDA with probability 100%
------------------------------------------------------------
Processing file: [07. Village Dance - Going Home.wav]
------------------------------------------------------------
This track looks like CDDA with probability 100%
------------------------------------------------------------
Final Conclusion:
------------------------------------------------------------
These tracks looks like CDDA with probability 100%
Доп. информация:
 
Album Info & Tutu Records Review
All titles composed by Badal Roy & Amit Chatterjee except 3. by Badal Roy and 2. by Amit Chatterjee
Producer: Badal Roy, Amit Chatterjee & Peter Wiessmueller
Recording: "Live" to digital two track by David Baker
Location: Tedesco Studios, Patterson, New Jersey
Recording date: October 1993
Digital editing & mastering: David Baker at Current Sounds
Liner notes: Amit Chatterjee (supplemented by Aparajita Koch), December 1996
Cover art: unknown artist from the island 'Mali Losinj', Croatia
Photographers: unknown
Special thanks to Tom Tedesco, David Baker, Current Sounds, Peter Wiessmueller, Geeta Roy & Bapi Roy as well as to all of our beautiful friends who have supported our music
This record is dedicated to the Baul - wandering minstrel - in all of us
When Badal Roy joined Miles Davis’ band back in 1970, he got a mysterious answer to his question about how to play. “Play it like a nigger…” is what Miles said. Miles liked the sound of tablas, but Indian classical music didn’t fit into his concept of electric jazz. So he wanted Badal to develop a cross-over style. A student and disciple of Alla Rakha, Badal Roy has received worldwide critical acclaim, also for his current work with Ornette Coleman’s Prime Time. An imposing discography includes - apart from Davis - Herbie Mann, John McLaughlin, Dave Liebman, Don Cherry, Pharoah Sanders, Leni Stern, Nana Vasconcelos, Dizzy Gillespie. Studio owner Tom Tedesco wrote saying “… Badal’s playing of tabla in a jazz context far surpasses anything ever done..”
A guitarist, sitarist, singer and composer, Amit Chatterjee has gone through extensive training in Indian, European and American music He teaches at the Ethnomusicology department of the University of Miami. His ambition to forge truely global music is what he achieves on this recording. Amit has recorded and performed with great artists such as Joe Zawinul (from 1983 onwards), Carlos Santana, Eric Johnson, Glen Velez, Layne Redmond, Dave Liebman, Paul Winter and Paul Halley- and of course, compatriot Badal Roy.
This album, is a logical product of Badal’s and Amit’s friendship and long sojourn in a world where music is just music..”Sound must be divested of a caste system,” Badal said to us during his flying visit to Munich, “a sound or a note doesn’t know where it belongs - it can belong anywhere!” With a childlike gaiety and playfulness paradoxically acquired only through the courage to take risks - both musicians unfurl a myriad sounds, colours and moods, Amit phrasing with bent notes and quarter notes, Badal playing complex 6/4 or 7/8 time cycles. Though they’re varying pitch, pace and volume - combining the rainstick and the matak, the mridangam or the madol - the guitar sounding plugged or unplugged, or even sometimes like a sitar - they never lose the inner coherence, their story: They bring sunshine to the people - and eternal radiance.
 
Состав
Amit Chatterjee: electric guitar
Badal Roy: Indian percussion
16:48
419
Нет комментариев. Ваш будет первым!