Поиск

(World Fusion, Indian) [CD] Fine Blue Thread - Red Mountain - 2009, WavPack (image+.cue), lossless

(World Fusion, Indian) [CD] Fine Blue Thread - Red Mountain - 2009, WavPack (image+.cue), lossless
Треклист:
Fine Blue Thread / Red Mountain
Жанр: World Fusion, Indian
Носитель: CD
Страна-производитель диска: Australia
Год издания: 2009
Издатель (лейбл): Soundvault
Номер по каталогу: SV0626
Страна: Australia
Аудиокодек: WavPack (*.wv)
Тип рипа: image+.cue
Битрейт аудио: lossless
Продолжительность: 45:09
Источник (релизер): transgressions
Наличие сканов в содержимом раздачи: нет
Треклист:
01. "Fine blue thread"
02. "Red mountain"
03. "One two three"
04. "A quiet game"
05. "Little cat big mouse"
06. "Pulang"
07. "Transported"
08. "To the boat"
 
Лог создания рипа
Exact Audio Copy V1.0 beta 3 from 29. August 2011
EAC extraction logfile from 6. September 2012, 11:29
Fine Blue Thread / Red Mountain
Used drive : ATAPI iHAS324 A Adapter: 0 ID: 1
Read mode : Secure
Utilize accurate stream : Yes
Defeat audio cache : Yes
Make use of C2 pointers : No
Read offset correction : 6
Overread into Lead-In and Lead-Out : No
Fill up missing offset samples with silence : Yes
Delete leading and trailing silent blocks : No
Null samples used in CRC calculations : Yes
Used interface : Native Win32 interface for Win NT & 2000
Used output format : Internal WAV Routines
Sample format : 44.100 Hz; 16 Bit; Stereo
TOC of the extracted CD
Track | Start | Length | Start sector | End sector
---------------------------------------------------------
1 | 0:00.00 | 3:55.19 | 0 | 17643
2 | 3:55.19 | 11:11.51 | 17644 | 68019
3 | 15:06.70 | 4:30.30 | 68020 | 88299
4 | 19:37.25 | 10:35.08 | 88300 | 135932
5 | 30:12.33 | 2:30.31 | 135933 | 147213
6 | 32:42.64 | 3:03.22 | 147214 | 160960
7 | 35:46.11 | 2:24.30 | 160961 | 171790
8 | 38:10.41 | 6:58.56 | 171791 | 203196
Range status and errors
Selected range
Filename D:\rips\Fine Blue Thread - Red Mountain.wav
Peak level 100.0 %
Extraction speed 5.6 X
Range quality 100.0 %
Test CRC 0AC38ADA
Copy CRC 0AC38ADA
Copy OK
No errors occurred
AccurateRip summary
Track 1 not present in database
Track 2 not present in database
Track 3 not present in database
Track 4 not present in database
Track 5 not present in database
Track 6 not present in database
Track 7 not present in database
Track 8 not present in database
None of the tracks are present in the AccurateRip database
End of status report
---- CUETools DB Plugin V2.1.3
[CTDB TOCID: KB3qzeeOEFe6vrWjrfq2s.jN2fg-] disk not present in database, Submit result: KB3qzeeOEFe6vrWjrfq2s.jN2fg- has been uploaded
 
Об исполнителе (группе)
Fine Blue Thread is an exciting collaboration of three creative musicians from very different worlds: Helen Mountfort ('cello, My Friend the Chocolate Cake, Cosmo Cosmolino), Ria Soemardjo (voice and viola) and Sam Evans (multiple tabla and percussion). This distinctly Melbourne trio plays finely crafted, fresh and intriguing compositions that are grounded in the traditions of Indian, Javanese and Western classical music.
The music of Fine Blue Thread has been featured along side Ravi Shankar, Nusrat Fateh Ali Khan and Nitin Sawhney in a BBC world music compilation CD, A Beginners Guide to the Music of India, as an example of a contemporary approach to the use of Indian instruments, recently released in Europe.
Since their sold-out debut performance at the Melbourne International Arts Festival, Fine Blue Thread have been surprising audiences throughout Australia with performances of their own original music that is sometimes haunting, uplifting and breathtakingly intimate. Fine Blue Thread have recently released the album Red Mountain and are receiving rave reviews for this debut work. The music of Fine Blue Thread is moody, open, sweet and surprising - generating a distinctive modern Melbourne sound. Recent performance highlights include the Melbourne International Arts Festival, The Victorian Arts Centre, The Melbourne Recital Centre, The Famous Spiegeltents in Melbourne and Sydney and other festivals throughout Australia.
 
Состав
Helen Mountfort ~ Gut String 'Cello
Ria Soemardjo ~ Voice and Viola
Sam Evans ~ Multiple Tabla and Percussion
14:35
293
Нет комментариев. Ваш будет первым!