Поиск

(World Fusion, Folk, Ethnic Jazz, Hungary) [CD] Dresch Dudás Mihály Quartett (Dudas Mihaly) - Révészem, révészem... (Reveszem, reveszem...) - 1998, FLAC (tracks+.cue), lossless

(World Fusion, Folk, Ethnic Jazz, Hungary) [CD] Dresch Dudás Mihály Quartett (Dudas Mihaly) - Révészem, révészem... (Reveszem, reveszem...) - 1998, FLAC (tracks+.cue), lossless
Треклист:
Dresch Dudás Mihály Quartett - Révészem, révészem...
Жанр: World Fusion, Folk, Ethnic Jazz, Hungary
Носитель: CD
Страна-производитель диска (релиза): Hungary
Год издания: 1998
Издатель (лейбл): FONÓ Records
Номер по каталогу: FA-037-2
Страна исполнителя (группы): Hungary
Аудиокодек: FLAC (*.flac)
Тип рипа: tracks+.cue
Битрейт аудио: lossless
Продолжительность: 57:42
Источник (релизер): what.cd (PinkSmog)
Наличие сканов в содержимом раздачи: да
Треклист:
01. Gyimesi Impressziók (14:33)
02. Bánat, bána... (09:50)
03. Remény (03:22)
04. Rákóczi révészem... (13:39)
05. Hungarian Be-Pop (06:24)
06. Elballagok (09:50)
 
Лог создания рипа
Exact Audio Copy V1.0 beta 3 from 29. August 2011
EAC extraction logfile from 26. April 2013, 20:01
Dresch Dudás Mihály Quartett / Révészem, révészem
Used drive : PLEXTOR BD-R PX-B950SA Adapter: 2 ID: 0
Read mode : Secure
Utilize accurate stream : Yes
Defeat audio cache : Yes
Make use of C2 pointers : No
Read offset correction : 6
Overread into Lead-In and Lead-Out : No
Fill up missing offset samples with silence : Yes
Delete leading and trailing silent blocks : No
Null samples used in CRC calculations : Yes
Used interface : Native Win32 interface for Win NT & 2000
Gap handling : Appended to previous track
Used output format : User Defined Encoder
Selected bitrate : 256 kBit/s
Quality : High
Add ID3 tag : No
Command line compressor : C:\Program Files (x86)\Exact Audio Copy\Flac\flac.exe
Additional command line options : -8 -V -T "ARTIST=%artist%" -T "TITLE=%title%" -T "ALBUM=%albumtitle%" -T "DATE=%year%" -T "TRACKNUMBER=%tracknr%" -T "TOTALTRACKS=%numtracks%" -T "GENRE=%genre%" -T "ALBUMARTIST=%albumartist%" -T "ALBUM ARTIST=%albumartist%" -T "COMMENT=EAC Secure Mode, Test & Copy, AccurateRip, FLAC -8" %source%
TOC of the extracted CD
Track | Start | Length | Start sector | End sector
---------------------------------------------------------
1 | 0:00.00 | 14:33.13 | 0 | 65487
2 | 14:33.13 | 9:47.13 | 65488 | 109525
3 | 24:20.26 | 3:20.13 | 109526 | 124538
4 | 27:40.39 | 13:39.08 | 124539 | 185971
5 | 41:19.47 | 6:24.55 | 185972 | 214826
6 | 47:44.27 | 9:52.47 | 214827 | 259273
Track 1
Filename D:\temp3\01 - Gyimesi Impressziók.wav
Pre-gap length 0:00:02.00
Peak level 99.9 %
Extraction speed 2.2 X
Track quality 99.9 %
Test CRC 1013068D
Copy CRC 1013068D
Cannot be verified as accurate (confidence 1) [C0BA40EA], AccurateRip returned [3A7A2B50] (AR v2)
Copy OK
Track 2
Filename D:\temp3\02 - Bánat, bánat....wav
Peak level 99.9 %
Extraction speed 3.0 X
Track quality 100.0 %
Test CRC 6857B4C2
Copy CRC 6857B4C2
Cannot be verified as accurate (confidence 1) [E0971687], AccurateRip returned [CBF95E00] (AR v2)
Copy OK
Track 3
Filename D:\temp3\03 - Remény.wav
Peak level 69.0 %
Extraction speed 2.1 X
Track quality 99.9 %
Test CRC 9B201322
Copy CRC 9B201322
Cannot be verified as accurate (confidence 1) [65420277], AccurateRip returned [7CA03CD6] (AR v2)
Copy OK
Track 4
Filename D:\temp3\04 - Rákóczi révészem.wav
Peak level 98.5 %
Extraction speed 3.6 X
Track quality 100.0 %
Test CRC 130FA5F4
Copy CRC 130FA5F4
Cannot be verified as accurate (confidence 1) [11C90586], AccurateRip returned [7E7BF196] (AR v2)
Copy OK
Track 5
Filename D:\temp3\05 - Hungarian Be-Pop.wav
Peak level 99.8 %
Extraction speed 3.8 X
Track quality 100.0 %
Test CRC A837E23E
Copy CRC A837E23E
Cannot be verified as accurate (confidence 1) [CBF52497], AccurateRip returned [62271725] (AR v2)
Copy OK
Track 6
Filename D:\temp3\06 - Elballagok.wav
Peak level 96.8 %
Extraction speed 3.6 X
Track quality 99.9 %
Test CRC 1BD2B3B5
Copy CRC 1BD2B3B5
Cannot be verified as accurate (confidence 1) [ADF976EF], AccurateRip returned [E26AB9EB] (AR v2)
Copy OK
No tracks could be verified as accurate
You may have a different pressing from the one(s) in the database
No errors occurred
End of status report
---- CUETools DB Plugin V2.1.4
[CTDB TOCID: OMez_PPuFgBxMezvmuSR4KS81Po-] disk not present in database
Submit result: OMez_PPuFgBxMezvmuSR4KS81Po- has been uploaded
==== Log checksum D2E457FCA3D29AA84B99E0F3FC774C121A6138CCFAE15B853C53440DCB1F2269 ====
 
Содержание индексной карты (.CUE)
REM GENRE Folk
REM DATE 1998
REM DISCID 570D8006
REM COMMENT "ExactAudioCopy v1.0b3"
PERFORMER "Dresch Dudás Mihály Quartett"
TITLE "Révészem, révészem"
FILE "01 - Gyimesi Impressziók.wav" WAVE
TRACK 01 AUDIO
TITLE "Gyimesi Impressziók"
PERFORMER "Dresch Dudás Mihály Quartett"
INDEX 01 00:00:00
FILE "02 - Bánat, bánat....wav" WAVE
TRACK 02 AUDIO
TITLE "Bánat, bánat..."
PERFORMER "Dresch Dudás Mihály Quartett"
INDEX 01 00:00:00
FILE "03 - Remény.wav" WAVE
TRACK 03 AUDIO
TITLE "Remény"
PERFORMER "Dresch Dudás Mihály Quartett"
INDEX 01 00:00:00
FILE "04 - Rákóczi révészem.wav" WAVE
TRACK 04 AUDIO
TITLE "Rákóczi révészem"
PERFORMER "Dresch Dudás Mihály Quartett"
INDEX 01 00:00:00
FILE "05 - Hungarian Be-Pop.wav" WAVE
TRACK 05 AUDIO
TITLE "Hungarian Be-Pop"
PERFORMER "Dresch Dudás Mihály Quartett"
INDEX 01 00:00:00
FILE "06 - Elballagok.wav" WAVE
TRACK 06 AUDIO
TITLE "Elballagok"
PERFORMER "Dresch Dudás Mihály Quartett"
INDEX 01 00:00:00
 
Лог проверки качества
-----------------------
DON'T MODIFY THIS FILE
-----------------------
PERFORMER: auCDtect Task Manager, ver. 1.6.0 RC1 build 1.6.0.1
Copyright (c) 2008-2010 y-soft. All rights reserved
http://y-soft.org
ANALYZER: auCDtect: CD records authenticity detector, version 0.8.2
Copyright (c) 2004 Oleg Berngardt. All rights reserved.
Copyright (c) 2004 Alexander Djourik. All rights reserved.
FILE: 06 - Elballagok.flac
Size: 41889583 Hash: F2EDCA7D3E24203161FC5720723CA63D Accuracy: -m0
Conclusion: MPEG 89%
Signature: A5F2CA4FDC854FA68A4450774831DCE0B4B1A9A7
FILE: 05 - Hungarian Be-Pop.flac
Size: 38898145 Hash: 175FA246FF87D42443C444FDEE1A9178 Accuracy: -m0
Conclusion: CDDA 99%
Signature: 54A1F2F8E20823EB45CA70D5D6ECB9AF1E25B4CE
FILE: 04 - Rákóczi révészem.flac
Size: 82600760 Hash: A7FC33AA1564D071ADB6089535930B11 Accuracy: -m0
Conclusion: CDDA 100%
Signature: A9B996BCB9571C074ABBDDD01B061B3DC20B1DDB
FILE: 03 - Remény.flac
Size: 10948843 Hash: C091207958B6936B9588EB7B12D32688 Accuracy: -m0
Conclusion: CDDA 92%
Signature: 52352E62E39279CCF825E0CE0805620A4019D31F
FILE: 02 - Bánat, bánat....flac
Size: 59450992 Hash: B8A56D27B6D8B2D11827DFA66BFC25AB Accuracy: -m0
Conclusion: CDDA 100%
Signature: 5BF91DDB0348A3CE38541EB84206CBA66F958344
FILE: 01 - Gyimesi Impressziók.flac
Size: 91689531 Hash: 58B8CCC723ADE84CB3913F7BC68AFE12 Accuracy: -m0
Conclusion: CDDA 100%
Signature: 543175211DEA969CFFEE8DCB23C8D53015F6DC23
 
Скриншот спектра частот
 
Состав
Dresch Dudás Mihály - szaxofonok, furulya, cimbalom, ének (saxophones, flutes, cymbal/dulcimer, vocal)
Benkő Róbert - bőgő (double bass)
Geröly Tamás - dob, ütőhangszerek (drums, percussion)
Kovács István - hegedű (violin)
Berecz András - ének (vocal)
20:57
290
Нет комментариев. Ваш будет первым!