Поиск

(World Fusion) Fareed Haque + The Flat Earth Ensemble - Flat Planet - 2008, FLAC (image+.cue), lossless

Треклист:
Fareed Haque + The Flat Earth Ensemble - Flat Planet

Жанр: World Fusion
Год выпуска диска: 2008
Производитель диска: Owl Studios OWL00133; USA
Аудио кодек: FLAC
Тип рипа: image+.cue
Битрейт аудио: lossless
Продолжительность: 1:15:39
Fareed Haque: guitars
David Hartsman: saxophone, flute
Rob Clearfiedl & Willerm Delisfort: keyboards, piano
Alex Austin & John Paul: bass
Cory Healey & Jason Smart: drums
Subrata Bhattacharya, Jim Feist & Salar Nader: tabla
Kalyan Pathak: dhol, sticked percussion
Indrajit Banerjee: sitar
Ganesh Kumar: kanjira
Kala Ramnath: Hindustani violin
Elihu Haque: djembe, voice
1. Big Bhangra
2. The Chant
3. Uneven Mantra
4. Blu Hindoo
5. Bengali Bud
6. Fur Peace
7. The Hanger
8. 32 Taxis
9. North
10. South
11. West
 
Audiophile Audition Review
While there’s no doubting Haque’s instrumental abilities, Flat Planet is no mere chops display. Throughout the eleven tracks Haque focuses firmly on compositional value. Each arrangement is balanced by complex ethnocentric harmonics and flavorful melodies, where pre-constructed exposition provides plenty of group and individual improvisation. Haque’s songwriting vision is effectively exhibited on multi-tiered conception “The Four Corners Suite”: three parts (“North,” “South” and “West”) are included on the compact disc, while “East” can be downloaded online at most major MP3 sites. The opus has a Greg Osby-esque unpredictability. “North” is a prog/fusion feast that evokes The Mahavishnu Orchestra and some of the Tony Williams’ Lifetime late sixties material. “South” also has a heavy-rock velocity that could be rough on sensitive ears. The “Four Corners Suite” finishes with “West,” an easygoing escapade that is the album’s balmiest affair and gives the 76-minute undertaking a positively heady end. On Flat Planet, Fareed Haque and the Flat Earth Ensemble furnish an exhilarating song collection of pan-ethnic elements brimming over with entwined instrumental prowess, democratic interplay, and abundantly engaging music. ~ Doug Simpson, Audiophile Audition
 
EAC Report
Exact Audio Copy V0.99 prebeta 4 from 23. January 2008
EAC extraction logfile from 27. July 2010, 7:21
Fareed Haque + The Flat Earth Ensemble / Flat Planet
Used drive : TSSTcorpCD/DVDW SH-S182M Adapter: 2 ID: 0
Read mode : Secure
Utilize accurate stream : Yes
Defeat audio cache : Yes
Make use of C2 pointers : No
Read offset correction : 6
Overread into Lead-In and Lead-Out : No
Fill up missing offset samples with silence : Yes
Delete leading and trailing silent blocks : No
Null samples used in CRC calculations : Yes
Used interface : Installed external ASPI interface
Used output format : User Defined Encoder
Selected bitrate : 1024 kBit/s
Quality : High
Add ID3 tag : No
Command line compressor : C:\Program Files\Exact Audio Copy\Flac\flac.exe
Additional command line options : -6 -V -T "ARTIST=%a" -T "TITLE=%t" -T "ALBUM=%g" -T "DATE=%y" -T "TRACKNUMBER=%n" -T "GENRE=%m" -T "COMMENT=EAC FLAC -6" %s
TOC of the extracted CD
Track | Start | Length | Start sector | End sector
---------------------------------------------------------
1 | 0:00.00 | 10:01.65 | 0 | 45139
2 | 10:01.65 | 7:03.01 | 45140 | 76865
3 | 17:04.66 | 10:12.37 | 76866 | 122802
4 | 27:17.28 | 5:29.26 | 122803 | 147503
5 | 32:46.54 | 5:00.63 | 147504 | 170066
6 | 37:47.42 | 11:07.38 | 170067 | 220129
7 | 48:55.05 | 7:35.04 | 220130 | 254258
8 | 56:30.09 | 3:59.51 | 254259 | 272234
9 | 60:29.60 | 7:20.19 | 272235 | 305253
10 | 67:50.04 | 2:57.29 | 305254 | 318557
11 | 70:47.33 | 4:51.30 | 318558 | 340412
Range status and errors
Selected range
Filename C:\Users\Igor\Music\eac\Fareed Haque + The Flat Earth Ensemble - Flat Planet.wav
Peak level 98.8 %
Range quality 100.0 %
Test CRC 121C1FA1
Copy CRC 121C1FA1
Copy OK
No errors occurred
AccurateRip summary
Track 1 accurately ripped (confidence 1) [0737F501]
Track 2 accurately ripped (confidence 1) [41168BAE]
Track 3 accurately ripped (confidence 1) [1E93AD04]
Track 4 accurately ripped (confidence 1) [D95037C3]
Track 5 accurately ripped (confidence 1) [6633C37A]
Track 6 accurately ripped (confidence 1) [28FAAEB7]
Track 7 accurately ripped (confidence 1) [E2E01C41]
Track 8 accurately ripped (confidence 1) [1A827BB0]
Track 9 accurately ripped (confidence 1) [38FF76FE]
Track 10 accurately ripped (confidence 1) [6EE7185F]
Track 11 accurately ripped (confidence 1) [6F5C1151]
All tracks accurately ripped
End of status report

рип собственный
17:12
268
Нет комментариев. Ваш будет первым!