Поиск

(World Fusion, Ethnic Jazz) Opa - Goldenwings {1976} - 1996, FLAC (tracks+.cue), lossless

(World Fusion, Ethnic Jazz) Opa - Goldenwings {1976} - 1996, FLAC (tracks+.cue), lossless
Треклист:
•Opa - Goldenwings {1976}•
Жанр: World Fusion, Ethnic Jazz
Страна-производитель диска: Argentina
Год издания: 1996
Издатель (лейбл): BMG Ariola
Номер по каталогу: 74321 41312-2
Аудиокодек: FLAC (*.flac)
Тип рипа: tracks+.cue
Битрейт аудио: lossless
Продолжительность: 00:39:13
Источник (релизер): goldenwings
Наличие сканов в содержимом раздачи: да
Треклист:
01. Goldenwings [04:15]
02. Paper Butterflies (Muy Lejos Te Vas) [07:10]
03. Totem [04:40]
04. African Bird [05:40]
05. Corre Ninha [05:42]
06. Pieces (inc. Tombo_La Escuela_Tombo_The Last Goodbye) [05:17]
07. Groove [06:25]
Personnel:
Hugo Fattoruso - keyboards, percussion, vocals
George Osvaldo Fattoruso - drums, percussion, vocals
Ringo Thielmann - bass, vocals
David Amaro - guitar
Hermeto Pascoal - flute, percussion
Airto Moreira - congas, percussion
 
Лог создания рипа
Exact Audio Copy V1.0 beta 3 from 29. August 2011
EAC extraction logfile from 30. September 2012, 20:12
Opa / Goldenwings
Used drive : TSSTcorpCDDVDW SH-S203D Adapter: 2 ID: 2
Read mode : Secure
Utilize accurate stream : Yes
Defeat audio cache : Yes
Make use of C2 pointers : No
Read offset correction : 6
Overread into Lead-In and Lead-Out : No
Fill up missing offset samples with silence : Yes
Delete leading and trailing silent blocks : No
Null samples used in CRC calculations : Yes
Used interface : Native Win32 interface for Win NT & 2000
Gap handling : Appended to previous track
Used output format : User Defined Encoder
Selected bitrate : 1024 kBit/s
Quality : High
Add ID3 tag : No
Command line compressor : C:\Archivos de programa\Exact Audio Copy\FLAC\FLAC.EXE
Additional command line options : -8 -V -T "ARTIST=%artist%" -T "TITLE=%title%" -T "ALBUM=%albumtitle%" -T "DATE=%year%" -T "TRACKNUMBER=%tracknr%" -T "GENRE=%genre%" -T "PERFORMER=%albuminterpret%" -T "COMPOSER=%composer%" %haslyrics%--tag-from-file=LYRICS="%lyricsfile%"%haslyrics% -T "ALBUMARTIST=%albumartist%" -T "DISCNUMBER=%cdnumber%" -T "TOTALDISCS=%totalcds%" -T "TOTALTRACKS=%numtracks%" -T "COMMENT=EAC V1.0b3_SecuMode_Test&Copy_AccuRip_Flac-8_by Goldenwings" %hascover%--picture="%coverfile%"%hascover% %source% -o %dest%
TOC of the extracted CD
Track | Start | Length | Start sector | End sector
---------------------------------------------------------
1 | 0:00.00 | 4:15.17 | 0 | 19141
2 | 4:15.17 | 7:10.55 | 19142 | 51446
3 | 11:25.72 | 4:40.60 | 51447 | 72506
4 | 16:06.57 | 5:40.53 | 72507 | 98059
5 | 21:47.35 | 5:42.55 | 98060 | 123764
6 | 27:30.15 | 5:17.67 | 123765 | 147606
7 | 32:48.07 | 6:25.03 | 147607 | 176484
Track 1
Filename G:\Lossless con Tags\1. Uruguay\Opa - 1976 - Goldenwings\01 - Goldenwings.wav
Pre-gap length 0:00:02.00
Peak level 96.0 %
Extraction speed 4.6 X
Track quality 100.0 %
Test CRC 775324CB
Copy CRC 775324CB
Accurately ripped (confidence 1) [7995C174] (AR v1)
Copy OK
Track 2
Filename G:\Lossless con Tags\1. Uruguay\Opa - 1976 - Goldenwings\02 - Paper Butterflies (Muy Lejos Te Vas).wav
Pre-gap length 0:00:01.42
Peak level 97.5 %
Extraction speed 5.6 X
Track quality 100.0 %
Test CRC E7920BF6
Copy CRC E7920BF6
Accurately ripped (confidence 1) [0121C632] (AR v1)
Copy OK
Track 3
Filename G:\Lossless con Tags\1. Uruguay\Opa - 1976 - Goldenwings\03 - Totem.wav
Pre-gap length 0:00:01.42
Peak level 97.2 %
Extraction speed 5.9 X
Track quality 100.0 %
Test CRC 26F700CB
Copy CRC 26F700CB
Accurately ripped (confidence 1) [495252E1] (AR v1)
Copy OK
Track 4
Filename G:\Lossless con Tags\1. Uruguay\Opa - 1976 - Goldenwings\04 - African Bird.wav
Pre-gap length 0:00:01.42
Peak level 96.8 %
Extraction speed 6.5 X
Track quality 100.0 %
Test CRC 948F64AC
Copy CRC 948F64AC
Accurately ripped (confidence 1) [3CAD3CA0] (AR v1)
Copy OK
Track 5
Filename G:\Lossless con Tags\1. Uruguay\Opa - 1976 - Goldenwings\05 - Corre Ninha.wav
Pre-gap length 0:00:01.43
Peak level 97.6 %
Extraction speed 7.0 X
Track quality 100.0 %
Test CRC F64A9788
Copy CRC F64A9788
Accurately ripped (confidence 1) [EA00136E] (AR v1)
Copy OK
Track 6
Filename G:\Lossless con Tags\1. Uruguay\Opa - 1976 - Goldenwings\06 - Pieces (inc. Tombo_La Escuela_Tombo_The Last Goodbye).wav
Pre-gap length 0:00:01.40
Peak level 97.7 %
Extraction speed 7.4 X
Track quality 100.0 %
Test CRC 5696205D
Copy CRC 5696205D
Accurately ripped (confidence 1) [F2FCB92C] (AR v1)
Copy OK
Track 7
Filename G:\Lossless con Tags\1. Uruguay\Opa - 1976 - Goldenwings\07 - Groove.wav
Pre-gap length 0:00:02.45
Peak level 97.7 %
Extraction speed 8.0 X
Track quality 100.0 %
Test CRC B0CAFA0A
Copy CRC B0CAFA0A
Accurately ripped (confidence 1) [DC234A9F] (AR v1)
Copy OK
All tracks accurately ripped
No errors occurred
End of status report
---- CUETools DB Plugin V2.1.3
[CTDB TOCID: h1ChNUCQt7AWU_ABz_YFQxRNgdY-] found, Submit result: already submitted
[b41f4b3d] (1/1) Accurately ripped
==== Log checksum 196BCE3132DE52B856E9E1661E51F0FE2F9F4B62CCFB5BB448D85AE6A0275B69 ====
 
Содержание индексной карты (.CUE)
REM GENRE "Jazz - Candombe"
REM DATE 1976
REM DISCID 68093107
REM COMMENT "ExactAudioCopy v1.0b3"
PERFORMER "Opa"
TITLE "Goldenwings"
FILE "01 - Goldenwings.wav" WAVE
TRACK 01 AUDIO
TITLE "Goldenwings"
PERFORMER "Opa"
INDEX 01 00:00:00
TRACK 02 AUDIO
TITLE "Paper Butterflies (Muy Lejos Te Vas)"
PERFORMER "Opa"
INDEX 00 04:13:50
FILE "02 - Paper Butterflies (Muy Lejos Te Vas).wav" WAVE
INDEX 01 00:00:00
TRACK 03 AUDIO
TITLE "Totem"
PERFORMER "Opa"
INDEX 00 07:09:13
FILE "03 - Totem.wav" WAVE
INDEX 01 00:00:00
TRACK 04 AUDIO
TITLE "African Bird"
PERFORMER "Opa"
INDEX 00 04:39:18
FILE "04 - African Bird.wav" WAVE
INDEX 01 00:00:00
TRACK 05 AUDIO
TITLE "Corre Ninha"
PERFORMER "Opa"
INDEX 00 05:39:10
FILE "05 - Corre Ninha.wav" WAVE
INDEX 01 00:00:00
TRACK 06 AUDIO
TITLE "Pieces (inc. Tombo_La Escuela_Tombo_The Last Goodbye)"
PERFORMER "Opa"
INDEX 00 05:41:15
FILE "06 - Pieces (inc. Tombo_La Escuela_Tombo_The Last Goodbye).wav" WAVE
INDEX 01 00:00:00
TRACK 07 AUDIO
TITLE "Groove"
PERFORMER "Opa"
INDEX 00 05:15:22
FILE "07 - Groove.wav" WAVE
INDEX 01 00:00:00
08:51
308
Нет комментариев. Ваш будет первым!