Поиск

(World Fusion, Ethnic Jazz) Obo Addy & Kukrudu - Let Me Play My Drums - 1993, FLAC (image+.cue), lossless

(World Fusion, Ethnic Jazz) Obo Addy & Kukrudu - Let Me Play My Drums - 1993, FLAC (image+.cue), lossless
♦ Obo Addy & Kukrudu - Let Me Play My Drums ♦
Жанр: World Fusion, Ethnic Jazz
Страна-производитель диска: USA
Год издания: 1993
Издатель (лейбл): Burnside Records
Номер по каталогу: BCA-0010-2
Аудиокодек: FLAC (*.flac)
Тип рипа: image+.cue
Битрейт аудио: lossless
Продолжительность: 01:01:25
Источник (релизер): dreadbull
Наличие сканов в содержимом раздачи: да
Треклист:
01. Oshi [05:41]
02. Abongo [06:54]
03. Naa Yere Bo [07:05]
04. Esolobo [05:05]
05. Gota [06:52]
06. Something's Coming [05:37]
07. It's Happening [07:26]
08. I Feel Cold [06:03]
09. Let Me Play My Drums [10:39]
 
Лог создания рипа
Exact Audio Copy V1.0 beta 3 from 29. August 2011
EAC extraction logfile from 20. March 2013, 22:54
Obo Addy / Let Me Play My Drums
Used drive : ASUS DRW-22B2L Adapter: 0 ID: 0
Read mode : Secure
Utilize accurate stream : Yes
Defeat audio cache : Yes
Make use of C2 pointers : No
Read offset correction : 6
Overread into Lead-In and Lead-Out : No
Fill up missing offset samples with silence : Yes
Delete leading and trailing silent blocks : No
Null samples used in CRC calculations : Yes
Used interface : Native Win32 interface for Win NT & 2000
Used output format : User Defined Encoder
Selected bitrate : 128 kBit/s
Quality : High
Add ID3 tag : Yes
Command line compressor : C:\Program Files\FLAC\flac.exe
Additional command line options : -8 -V -T "ARTIST=%artist%" -T "TITLE=%title%" -T "ALBUM=%albumtitle%" -T "DATE=%year%" -T "TRACKNUMBER=%tracknr%" -T "GENRE=%genre%" -T "PERFORMER=%albuminterpret%" -T "COMPOSER=%composer%" %haslyrics%--tag-from-file=LYRICS="%lyricsfile%"%haslyrics% -T "ALBUMARTIST=%albumartist%" -T "DISCNUMBER=%cdnumber%" -T "TOTALDISCS=%totalcds%" -T "TOTALTRACKS=%numtracks%" -T "COMMENT=%comment%" %source% -o %dest%
TOC of the extracted CD
Track | Start | Length | Start sector | End sector
---------------------------------------------------------
1 | 0:00.00 | 5:41.00 | 0 | 25574
2 | 5:41.00 | 6:54.12 | 25575 | 56636
3 | 12:35.12 | 7:05.23 | 56637 | 88534
4 | 19:40.35 | 5:05.65 | 88535 | 111474
5 | 24:46.25 | 6:52.17 | 111475 | 142391
6 | 31:38.42 | 5:37.43 | 142392 | 167709
7 | 37:16.10 | 7:26.07 | 167710 | 201166
8 | 44:42.17 | 6:03.15 | 201167 | 228406
9 | 50:45.32 | 10:39.50 | 228407 | 276381
Range status and errors
Selected range
Filename F:\Donkey Files\Obo Addy & Kukrudu - Let Me Play My Drums (1993, Burnside) [eac-flac-scans] byDrBull\Obo Addy - Let Me Play My Drums.wav
Peak level 87.3 %
Extraction speed 3.5 X
Range quality 100.0 %
Test CRC D496FE67
Copy CRC D496FE67
Copy OK
No errors occurred
AccurateRip summary
Track 1 not present in database
Track 2 not present in database
Track 3 accurately ripped (confidence 1) [9019D128] (AR v1)
Track 4 not present in database
Track 5 accurately ripped (confidence 1) [4201C1AA] (AR v1)
Track 6 not present in database
Track 7 not present in database
Track 8 not present in database
Track 9 not present in database
2 track(s) accurately ripped
7 track(s) not present in the AccurateRip database
Some tracks could not be verified as accurate
End of status report
==== Log checksum F3A3C4CB2F0C2F68AD74805894CD41DD6315738D4B5CE074C3DE1C3902FEB66A ====
 
Содержание индексной карты (.CUE)
REM DISCID 7B0E6509
REM COMMENT "ExactAudioCopy v1.0b3"
PERFORMER "Obo Addy"
TITLE "Let Me Play My Drums"
FILE "Obo Addy - Let Me Play My Drums.flac" WAVE
TRACK 01 AUDIO
TITLE "Oshi"
PERFORMER "Obo Addy"
INDEX 01 00:00:00
TRACK 02 AUDIO
TITLE "Abongo"
PERFORMER "Obo Addy"
INDEX 00 05:38:40
INDEX 01 05:41:00
TRACK 03 AUDIO
TITLE "Naa Yere Bo"
PERFORMER "Obo Addy"
INDEX 00 12:32:32
INDEX 01 12:35:12
TRACK 04 AUDIO
TITLE "Esolobo"
PERFORMER "Obo Addy"
INDEX 00 19:37:52
INDEX 01 19:40:35
TRACK 05 AUDIO
TITLE "Gota"
PERFORMER "Obo Addy"
INDEX 00 24:43:35
INDEX 01 24:46:25
TRACK 06 AUDIO
TITLE "Something's Coming"
PERFORMER "Obo Addy"
INDEX 00 31:37:17
INDEX 01 31:38:42
TRACK 07 AUDIO
TITLE "It's Happening"
PERFORMER "Obo Addy"
INDEX 00 37:13:22
INDEX 01 37:16:10
TRACK 08 AUDIO
TITLE "I Feel Cold"
PERFORMER "Obo Addy"
INDEX 00 44:38:17
INDEX 01 44:42:17
TRACK 09 AUDIO
TITLE "Let Me Play My Drums"
PERFORMER "Obo Addy"
INDEX 00 50:43:07
INDEX 01 50:45:32
 
Состав
Personnel:
Obo Addy - all hand drums, vocals;
Jim Cheek - trumpet;
Gary Harris - saxophone;
Matthew Galaher - bass guitar;
Thomas Hill - trombone;
Chris Baum - keyboards, horn arrangements (#5);
Nee Sai Botchway - guitar (#1,5,7,9);
Tod Carver - guitar (#2,3,6,9);
Matthew Newman - guitar (#8);
Tim Rap - drum set (#1,5,6,8);
Jeff Ward - drum set (#2,3);
Ron George - vocals (#5).Rec.: Falcon Recording Studios, Portland, OR.
11:08
241
Нет комментариев. Ваш будет первым!