Поиск

(World Fusion, Ethnic Jazz) Maria Bethania - Ao Vivo - 1995, FLAC (tracks+.cue), lossless

(World Fusion, Ethnic Jazz) Maria Bethania - Ao Vivo - 1995, FLAC (tracks+.cue), lossless
Maria Bethania / Ao Vivo
Жанр: World Fusion, Ethnic Jazz
Год издания: 1995
Страна исполнителя (группы): Brasil
Аудиокодек: FLAC (*.flac)
Тип рипа:tracks+.cue
Битрейт аудио: lossless
Продолжительность: 01:02:30
Источник (релизер): internet
Наличие сканов в содержимом раздачи: да
Треклист:
1. Cristal (Instrumental) [00:27]
2. Fera Ferida [03:46] -
3. Fe Cega, Faca Amolada [02:15]
4. Eu E Agua [03:02]
5. Genipapo Absoluto [02:14]
6. Mane Fogueteiro [03:06]
7. Tudo De Novo [02:27]
8. As Cancoes Que Voce Fez Pra Mim [03:54]
9. Ronda [01:55]
10. Onde O Rio E Mais Baiano Atras Da Verde E Rosa So Nao Vai Quem Ja Morreu [02:42]
11. Faixa De Cetim [01:19]
12. Lua [01:10]
13. Lua Branca [02:38]
14. Detalhes [04:24]
15. Costumes [02:47]
16. Meu Primeiro Amor (Lejania) [02:43]
17. Voce Nao Sabe [03:01]
18. Nao Da Mais Pra Segurar (Explode Coracao) [01:54]
19. Barbara [02:02]
20. Mar E Lua [02:03]
21. Voce [02:25]
22. Reconvexo [03:23]
23. Todo O Sentimento [02:36]
24. Emocoes [02:56]
25. Todo O Sentimento (Instrumental) [01:19]
 
Лог создания рипа
Exact Audio Copy V1.1 from 23. June 2015
EAC extraction logfile from 24. July 2015, 20:07
Maria Bethânia / Ao Vivo
Used drive : HL-DT-STDVDRAM GA50N Adapter: 1 ID: 0
Read mode : Secure
Utilize accurate stream : Yes
Defeat audio cache : No
Make use of C2 pointers : No
Combined read/write offset correction : 0
Overread into Lead-In and Lead-Out : No
Fill up missing offset samples with silence : Yes
Delete leading and trailing silent blocks : No
Null samples used in CRC calculations : Yes
Used interface : Native Win32 interface for Win NT & 2000
Gap handling : Not detected, thus appended to previous track
Used output format : User Defined Encoder
Selected bitrate : 768 kBit/s
Quality : High
Add ID3 tag : No
Command line compressor : C:\Program Files (x86)\Exact Audio Copy\FLAC\FLAC.EXE
Additional command line options : -6 -V -T "ARTIST=%artist%" -T "TITLE=%title%" -T "ALBUM=%albumtitle%" -T "DATE=%year%" -T "TRACKNUMBER=%tracknr%" -T "GENRE=%genre%" -T "COMMENT=%comment%" -T "BAND=%albuminterpret%" -T "ALBUMARTIST=%albuminterpret%" -T "COMPOSER=%composer%" %haslyrics%--tag-from-file=LYRICS="%lyricsfile%"%haslyrics% -T "DISCNUMBER=%cdnumber%" -T "TOTALDISCS=%totalcds%" -T "TOTALTRACKS=%numtracks%" %hascover%--picture="%coverfile%"%hascover% %source% -o %dest%
TOC of the extracted CD
Track | Start | Length | Start sector | End sector
---------------------------------------------------------
1 | 0:00.00 | 0:27.02 | 0 | 2026
2 | 0:27.02 | 3:45.50 | 2027 | 18951
3 | 4:12.52 | 2:15.30 | 18952 | 29106
4 | 6:28.07 | 3:02.20 | 29107 | 42776
5 | 9:30.27 | 2:14.18 | 42777 | 52844
6 | 11:44.45 | 3:06.35 | 52845 | 66829
7 | 14:51.05 | 2:27.22 | 66830 | 77876
8 | 17:18.27 | 3:53.48 | 77877 | 95399
9 | 21:12.00 | 1:54.47 | 95400 | 103996
10 | 23:06.47 | 2:42.30 | 103997 | 116176
11 | 25:49.02 | 1:18.60 | 116177 | 122086
12 | 27:07.62 | 1:09.43 | 122087 | 127304
13 | 28:17.30 | 2:38.27 | 127305 | 139181
14 | 30:55.57 | 4:24.05 | 139182 | 158986
15 | 35:19.62 | 2:47.10 | 158987 | 171521
16 | 38:06.72 | 2:43.05 | 171522 | 183751
17 | 40:50.02 | 3:00.38 | 183752 | 197289
18 | 43:50.40 | 1:53.60 | 197290 | 205824
19 | 45:44.25 | 2:02.30 | 205825 | 215004
20 | 47:46.55 | 2:02.45 | 215005 | 224199
21 | 49:49.25 | 2:25.20 | 224200 | 235094
22 | 52:14.45 | 3:23.32 | 235095 | 250351
23 | 55:38.02 | 2:35.60 | 250352 | 262036
24 | 58:13.62 | 2:56.23 | 262037 | 275259
25 | 61:10.10 | 1:19.33 | 275260 | 281217
Track 1
Filename E:\MY EAC[.FLAC]\Maria Bethania - Ao Vivo\1 Cristal (Instrumental) Maria Bethânia.flac
Peak level 97.3 %
Extraction speed 2.1 X
Track quality 100.0 %
Test CRC FEF64C0E
Copy CRC FEF64C0E
Copy OK
Track 2
Filename E:\MY EAC[.FLAC]\Maria Bethania - Ao Vivo\2 Fera Ferida Maria Bethânia.flac
Peak level 98.0 %
Extraction speed 2.2 X
Track quality 100.0 %
Test CRC 8D6E2470
Copy CRC 8D6E2470
Copy OK
Track 3
Filename E:\MY EAC[.FLAC]\Maria Bethania - Ao Vivo\3 Fé Cega, Faca Amolada Maria Bethânia.flac
Peak level 98.1 %
Extraction speed 2.4 X
Track quality 100.0 %
Test CRC F9BC19B1
Copy CRC F9BC19B1
Copy OK
Track 4
Filename E:\MY EAC[.FLAC]\Maria Bethania - Ao Vivo\4 Eu E Água Maria Bethânia.flac
Peak level 98.1 %
Extraction speed 2.5 X
Track quality 99.9 %
Test CRC 381D84F8
Copy CRC 381D84F8
Copy OK
Track 5
Filename E:\MY EAC[.FLAC]\Maria Bethania - Ao Vivo\5 Genipapo Absoluto Maria Bethânia.flac
Peak level 98.1 %
Extraction speed 2.7 X
Track quality 100.0 %
Test CRC 442209AF
Copy CRC 442209AF
Copy OK
Track 6
Filename E:\MY EAC[.FLAC]\Maria Bethania - Ao Vivo\6 Mané Fogueteiro Maria Bethânia.flac
Peak level 98.2 %
Extraction speed 2.8 X
Track quality 100.0 %
Test CRC 0C19CA27
Copy CRC 0C19CA27
Copy OK
Track 7
Filename E:\MY EAC[.FLAC]\Maria Bethania - Ao Vivo\7 Tudo De Novo Maria Bethânia.flac
Peak level 97.7 %
Extraction speed 2.9 X
Track quality 100.0 %
Test CRC 88C2F281
Copy CRC 88C2F281
Copy OK
Track 8
Filename E:\MY EAC[.FLAC]\Maria Bethania - Ao Vivo\8 As Canções Que Você Fez Pra Mim Maria Bethânia.flac
Peak level 98.2 %
Extraction speed 3.0 X
Track quality 100.0 %
Test CRC 0920B8D9
Copy CRC 0920B8D9
Copy OK
Track 9
Filename E:\MY EAC[.FLAC]\Maria Bethania - Ao Vivo\9 Ronda Maria Bethânia.flac
Peak level 97.8 %
Extraction speed 3.2 X
Track quality 100.0 %
Test CRC 1358A32B
Copy CRC 1358A32B
Copy OK
Track 10
Filename E:\MY EAC[.FLAC]\Maria Bethania - Ao Vivo\10 Onde O Rio É Mais Baiano Atrás Da Verde E Rosa Só Não Vai Quem Já Morreu.flac
Peak level 98.4 %
Extraction speed 3.3 X
Track quality 100.0 %
Test CRC 7A5BCE8D
Copy CRC 7A5BCE8D
Copy OK
Track 11
Filename E:\MY EAC[.FLAC]\Maria Bethania - Ao Vivo\11 Faixa De Cetim Maria Bethânia.flac
Peak level 97.8 %
Extraction speed 3.4 X
Track quality 100.0 %
Test CRC 0F89C8CA
Copy CRC 0F89C8CA
Copy OK
Track 12
Filename E:\MY EAC[.FLAC]\Maria Bethania - Ao Vivo\12 Lua Maria Bethânia.flac
Peak level 94.9 %
Extraction speed 3.2 X
Track quality 100.0 %
Test CRC D0466CF6
Copy CRC D0466CF6
Copy OK
Track 13
Filename E:\MY EAC[.FLAC]\Maria Bethania - Ao Vivo\13 Lua Branca Maria Bethânia.flac
Peak level 97.9 %
Extraction speed 3.4 X
Track quality 99.9 %
Test CRC F45B64B0
Copy CRC F45B64B0
Copy OK
Track 14
Filename E:\MY EAC[.FLAC]\Maria Bethania - Ao Vivo\14 Detalhes Maria Bethânia.flac
Peak level 98.3 %
Extraction speed 3.6 X
Track quality 100.0 %
Test CRC 1B37212C
Copy CRC 1B37212C
Copy OK
Track 15
Filename E:\MY EAC[.FLAC]\Maria Bethania - Ao Vivo\15 Costumes Maria Bethânia.flac
Peak level 97.9 %
Extraction speed 3.8 X
Track quality 100.0 %
Test CRC 30960D23
Copy CRC 30960D23
Copy OK
Track 16
Filename E:\MY EAC[.FLAC]\Maria Bethania - Ao Vivo\16 Meu Primeiro Amor (Lejania) Maria Bethânia.flac
Peak level 97.9 %
Extraction speed 3.9 X
Track quality 100.0 %
Test CRC 6B3DD8F2
Copy CRC 6B3DD8F2
Copy OK
Track 17
Filename E:\MY EAC[.FLAC]\Maria Bethania - Ao Vivo\17 Você Não Sabe Maria Bethânia.flac
Peak level 98.2 %
Extraction speed 3.8 X
Track quality 100.0 %
Test CRC D717D1CC
Copy CRC D717D1CC
Copy OK
Track 18
Filename E:\MY EAC[.FLAC]\Maria Bethania - Ao Vivo\18 Nao Dá Mais Pra Segurar (Explode Coração) Maria Bethânia.flac
Peak level 98.4 %
Extraction speed 3.8 X
Track quality 100.0 %
Test CRC 177C5E0D
Copy CRC 177C5E0D
Copy OK
Track 19
Filename E:\MY EAC[.FLAC]\Maria Bethania - Ao Vivo\19 Bárbara Maria Bethânia.flac
Peak level 98.3 %
Extraction speed 3.9 X
Track quality 100.0 %
Test CRC 22B6430B
Copy CRC 22B6430B
Copy OK
Track 20
Filename E:\MY EAC[.FLAC]\Maria Bethania - Ao Vivo\20 Mar E Lua Maria Bethânia.flac
Peak level 97.4 %
Extraction speed 4.2 X
Track quality 100.0 %
Test CRC A1DB1D61
Copy CRC A1DB1D61
Copy OK
Track 21
Filename E:\MY EAC[.FLAC]\Maria Bethania - Ao Vivo\21 Você Maria Bethânia.flac
Peak level 87.1 %
Extraction speed 4.2 X
Track quality 100.0 %
Test CRC 36146B73
Copy CRC 36146B73
Copy OK
Track 22
Filename E:\MY EAC[.FLAC]\Maria Bethania - Ao Vivo\22 Reconvexo Maria Bethânia.flac
Peak level 98.3 %
Extraction speed 4.2 X
Track quality 100.0 %
Test CRC 9362BB7B
Copy CRC 9362BB7B
Copy OK
Track 23
Filename E:\MY EAC[.FLAC]\Maria Bethania - Ao Vivo\23 Todo O Sentimento Maria Bethânia.flac
Peak level 97.0 %
Extraction speed 4.3 X
Track quality 100.0 %
Test CRC F30F5EBC
Copy CRC F30F5EBC
Copy OK
Track 24
Filename E:\MY EAC[.FLAC]\Maria Bethania - Ao Vivo\24 Emoções Maria Bethânia.flac
Peak level 98.0 %
Extraction speed 4.3 X
Track quality 99.9 %
Test CRC D2727CE3
Copy CRC D2727CE3
Copy OK
Track 25
Filename E:\MY EAC[.FLAC]\Maria Bethania - Ao Vivo\25 Todo O Sentimento (Instrumental) Maria Bethânia.flac
Peak level 98.0 %
Extraction speed 4.5 X
Track quality 100.0 %
Test CRC 8FCF04C5
Copy CRC 8FCF04C5
Copy OK
No errors occurred
End of status report
==== Log checksum 0B35B9CCD2FC16951BC9DB4233E730B0588ED311B4DF975C596C124AB1F53F88 ====
 
Audiochecker log
-----------------------------------------------------------
Started at: суббота, 31. 10. 2015. - 11:32.34
25 files found
01 -===- F:\ЯЯЯЯ\Maria Bethania - Ao Vivo\1 Cristal (Instrumental) Maria Bethania.flac
Error while extracting! Check your rights, free some space if needed and ensure the file is valid.
02 -===- F:\ЯЯЯЯ\Maria Bethania - Ao Vivo\2 Fera Ferida Maria Bethania.flac
Error while extracting! Check your rights, free some space if needed and ensure the file is valid.
03 -===- F:\ЯЯЯЯ\Maria Bethania - Ao Vivo\3 Fe Cega, Faca Amolada Maria Bethania.flac
Error while extracting! Check your rights, free some space if needed and ensure the file is valid.
04 -===- F:\ЯЯЯЯ\Maria Bethania - Ao Vivo\4 Eu E Agua Maria Bethania.flac
Error while extracting! Check your rights, free some space if needed and ensure the file is valid.
05 -===- F:\ЯЯЯЯ\Maria Bethania - Ao Vivo\5 Genipapo Absoluto Maria Bethania.flac
Error while extracting! Check your rights, free some space if needed and ensure the file is valid.
06 -===- F:\ЯЯЯЯ\Maria Bethania - Ao Vivo\6 Mane Fogueteiro Maria Bethania.flac
Error while extracting! Check your rights, free some space if needed and ensure the file is valid.
07 -===- F:\ЯЯЯЯ\Maria Bethania - Ao Vivo\7 Tudo De Novo Maria Bethania.flac
Error while extracting! Check your rights, free some space if needed and ensure the file is valid.
08 -===- F:\ЯЯЯЯ\Maria Bethania - Ao Vivo\8 As Cancoes Que Voce Fez Pra Mim Maria Bethania.flac
Error while extracting! Check your rights, free some space if needed and ensure the file is valid.
09 -===- F:\ЯЯЯЯ\Maria Bethania - Ao Vivo\9 Ronda Maria Bethania.flac
Error while extracting! Check your rights, free some space if needed and ensure the file is valid.
10 -===- F:\ЯЯЯЯ\Maria Bethania - Ao Vivo\10 Onde O Rio E Mais Baiano Atras Da Verde E Rosa So Nao Vai Quem Ja Morreu.flac
Error while extracting! Check your rights, free some space if needed and ensure the file is valid.
11 -===- F:\ЯЯЯЯ\Maria Bethania - Ao Vivo\11 Faixa De Cetim Maria Bethania.flac
Error while extracting! Check your rights, free some space if needed and ensure the file is valid.
12 -===- F:\ЯЯЯЯ\Maria Bethania - Ao Vivo\12 Lua Maria Bethania.flac
Error while extracting! Check your rights, free some space if needed and ensure the file is valid.
13 -===- F:\ЯЯЯЯ\Maria Bethania - Ao Vivo\13 Lua Branca Maria Bethania.flac
Error while extracting! Check your rights, free some space if needed and ensure the file is valid.
14 -===- F:\ЯЯЯЯ\Maria Bethania - Ao Vivo\14 Detalhes Maria Bethania.flac
Error while extracting! Check your rights, free some space if needed and ensure the file is valid.
15 -===- F:\ЯЯЯЯ\Maria Bethania - Ao Vivo\15 Costumes Maria Bethania.flac
Error while extracting! Check your rights, free some space if needed and ensure the file is valid.
16 -===- F:\ЯЯЯЯ\Maria Bethania - Ao Vivo\16 Meu Primeiro Amor (Lejania) Maria Bethania.flac
Error while extracting! Check your rights, free some space if needed and ensure the file is valid.
17 -===- F:\ЯЯЯЯ\Maria Bethania - Ao Vivo\17 Voce Nao Sabe Maria Bethania.flac
Error while extracting! Check your rights, free some space if needed and ensure the file is valid.
18 -===- F:\ЯЯЯЯ\Maria Bethania - Ao Vivo\18 Nao Da Mais Pra Segurar (Explode Coracao) Maria Bethania.flac
Error while extracting! Check your rights, free some space if needed and ensure the file is valid.
19 -===- F:\ЯЯЯЯ\Maria Bethania - Ao Vivo\19 Barbara Maria Bethania.flac
Error while extracting! Check your rights, free some space if needed and ensure the file is valid.
20 -===- F:\ЯЯЯЯ\Maria Bethania - Ao Vivo\20 Mar E Lua Maria Bethania.flac
Error while extracting! Check your rights, free some space if needed and ensure the file is valid.
21 -===- F:\ЯЯЯЯ\Maria Bethania - Ao Vivo\21 Voce Maria Bethania.flac
Error while extracting! Check your rights, free some space if needed and ensure the file is valid.
22 -===- F:\ЯЯЯЯ\Maria Bethania - Ao Vivo\22 Reconvexo Maria Bethania.flac
Error while extracting! Check your rights, free some space if needed and ensure the file is valid.
23 -===- F:\ЯЯЯЯ\Maria Bethania - Ao Vivo\23 Todo O Sentimento Maria Bethania.flac
Error while extracting! Check your rights, free some space if needed and ensure the file is valid.
24 -===- F:\ЯЯЯЯ\Maria Bethania - Ao Vivo\24 Emocoes Maria Bethania.flac
Error while extracting! Check your rights, free some space if needed and ensure the file is valid.
25 -===- F:\ЯЯЯЯ\Maria Bethania - Ao Vivo\25 Todo O Sentimento (Instrumental) Maria Bethania.flac
Error while extracting! Check your rights, free some space if needed and ensure the file is valid.
Finished at: суббота, 31. 10. 2015. - 11:32.42 (operation time: 0:00.07)
 
Содержание индексной карты (.CUE)
REM GENRE MPB
REM DATE 1995
REM DISCID 790EA519
REM COMMENT "ExactAudioCopy v1.1"
PERFORMER "Maria Bethania"
TITLE "Ao Vivo"
FILE "1 Cristal (Instrumental) Maria Bethania.wav" WAVE
TRACK 01 AUDIO
TITLE "Cristal (Instrumental)"
PERFORMER "Maria Bethania"
INDEX 01 00:00:00
FILE "2 Fera Ferida Maria Bethania.wav" WAVE
TRACK 02 AUDIO
TITLE "Fera Ferida"
PERFORMER "Maria Bethania"
INDEX 01 00:00:00
FILE "3 Fe Cega, Faca Amolada Maria Bethania.wav" WAVE
TRACK 03 AUDIO
TITLE "Fe Cega, Faca Amolada"
PERFORMER "Maria Bethania"
INDEX 01 00:00:00
FILE "4 Eu E Agua Maria Bethania.wav" WAVE
TRACK 04 AUDIO
TITLE "Eu E Agua"
PERFORMER "Maria Bethania"
INDEX 01 00:00:00
FILE "5 Genipapo Absoluto Maria Bethania.wav" WAVE
TRACK 05 AUDIO
TITLE "Genipapo Absoluto"
PERFORMER "Maria Bethania"
INDEX 01 00:00:00
FILE "6 Mane Fogueteiro Maria Bethania.wav" WAVE
TRACK 06 AUDIO
TITLE "Mane Fogueteiro"
PERFORMER "Maria Bethania"
INDEX 01 00:00:00
FILE "7 Tudo De Novo Maria Bethania.wav" WAVE
TRACK 07 AUDIO
TITLE "Tudo De Novo"
PERFORMER "Maria Bethania"
INDEX 01 00:00:00
FILE "8 As Cancoes Que Voce Fez Pra Mim Maria Bethania.wav" WAVE
TRACK 08 AUDIO
TITLE "As Cancoes Que Voce Fez Pra Mim"
PERFORMER "Maria Bethania"
INDEX 01 00:00:00
FILE "9 Ronda Maria Bethania.wav" WAVE
TRACK 09 AUDIO
TITLE "Ronda"
PERFORMER "Maria Bethania"
INDEX 01 00:00:00
FILE "10 Onde O Rio E Mais Baiano Atras Da Verde E Rosa So Nao Vai Quem Ja Morreu.wav" WAVE
TRACK 10 AUDIO
TITLE "Onde O Rio E Mais Baiano"
PERFORMER "Atras Da Verde E Rosa So Nao Vai Quem Ja Morreu"
INDEX 01 00:00:00
FILE "11 Faixa De Cetim Maria Bethania.wav" WAVE
TRACK 11 AUDIO
TITLE "Faixa De Cetim"
PERFORMER "Maria Bethania"
INDEX 01 00:00:00
FILE "12 Lua Maria Bethania.wav" WAVE
TRACK 12 AUDIO
TITLE "Lua"
PERFORMER "Maria Bethania"
INDEX 01 00:00:00
FILE "13 Lua Branca Maria Bethania.wav" WAVE
TRACK 13 AUDIO
TITLE "Lua Branca"
PERFORMER "Maria Bethania"
INDEX 01 00:00:00
FILE "14 Detalhes Maria Bethania.wav" WAVE
TRACK 14 AUDIO
TITLE "Detalhes"
PERFORMER "Maria Bethania"
INDEX 01 00:00:00
FILE "15 Costumes Maria Bethania.wav" WAVE
TRACK 15 AUDIO
TITLE "Costumes"
PERFORMER "Maria Bethania"
INDEX 01 00:00:00
FILE "16 Meu Primeiro Amor (Lejania) Maria Bethania.wav" WAVE
TRACK 16 AUDIO
TITLE "Meu Primeiro Amor (Lejania)"
PERFORMER "Maria Bethania"
INDEX 01 00:00:00
FILE "17 Vocк Nao Sabe Maria Bethania.wav" WAVE
TRACK 17 AUDIO
TITLE "Vocк Nao Sabe"
PERFORMER "Maria Bethania"
INDEX 01 00:00:00
FILE "18 Nao Da Mais Pra Segurar (Explode Coraзгo) Maria Bethania.wav" WAVE
TRACK 18 AUDIO
TITLE "Nao Da Mais Pra Segurar (Explode Coraзгo)"
PERFORMER "Maria Bethania"
INDEX 01 00:00:00
FILE "19 Barbara Maria Bethania.wav" WAVE
TRACK 19 AUDIO
TITLE "Barbara"
PERFORMER "Maria Bethania"
INDEX 01 00:00:00
FILE "20 Mar E Lua Maria Bethania.wav" WAVE
TRACK 20 AUDIO
TITLE "Mar E Lua"
PERFORMER "Maria Bethania"
INDEX 01 00:00:00
FILE "21 Voce Maria Bethania.wav" WAVE
TRACK 21 AUDIO
TITLE "Voce"
PERFORMER "Maria Bethania"
INDEX 01 00:00:00
FILE "22 Reconvexo Maria Bethania.wav" WAVE
TRACK 22 AUDIO
TITLE "Reconvexo"
PERFORMER "Maria Bethania"
INDEX 01 00:00:00
FILE "23 Todo O Sentimento Maria Bethania.wav" WAVE
TRACK 23 AUDIO
TITLE "Todo O Sentimento"
PERFORMER "Maria Bethania"
INDEX 01 00:00:00
FILE "24 Emocoes Maria Bethania.wav" WAVE
TRACK 24 AUDIO
TITLE "Emocoes"
PERFORMER "Maria Bethania"
INDEX 01 00:00:00
FILE "25 Todo O Sentimento (Instrumental) Maria Bethania.wav" WAVE
TRACK 25 AUDIO
TITLE "Todo O Sentimento (Instrumental)"
PERFORMER "Maria Bethania"
INDEX 01 00:00:00
19:45
294
Нет комментариев. Ваш будет первым!