Поиск

(World Fusion, Ethnic Jazz) Gonzalo Rubalcaba Trio - Supernova - 2001, FLAC (tracks+.cue), lossless

(World Fusion, Ethnic Jazz) Gonzalo Rubalcaba Trio - Supernova - 2001, FLAC (tracks+.cue), lossless
•Gonzalo Rubalcaba Trio - Supernova•
Жанр: World Fusion, Ethnic Jazz
Страна-производитель диска: USA
Год издания: 2001
Издатель (лейбл): Blue Note
Номер по каталогу: 7243 5 31172 2 1
Аудиокодек: FLAC (*.flac)
Тип рипа: tracks+.cue
Битрейт аудио: lossless
Продолжительность: 00:58:40
Источник (релизер): begaybe
Наличие сканов в содержимом раздачи: да
Треклист:
01. Supernova 1 [06:26]
02. El Cadete Constitucional (The Constitutional Cadet) [07:12]
03. Alma Mia (Soul of Mine) [06:02]
04. La Voz Del Centro (The Voice In Between) [06:43]
05. El Manicero (The Peanut Vendor) [08:30]
06. Supernova 2 [06:11]
07. Otra Mirada (Another View) [05:43]
08. The Hard One (Trio Version) [07:05]
09. Oren (Pray) [04:44]
Personnel:
Gonzalo Rubalcaba — piano, keyboards, percussion
Carlos Henriquez — upright bass
Ignacio Berroa — drums, rainmaker
Robert Quintero — congas
Luis Quintero — timbales, guiro
Jim Anderson — rainmaker
 
Лог создания рипа
Exact Audio Copy V0.99 prebeta 4 from 23. January 2008
EAC extraction logfile from 25. June 2009, 17:15
Gonzalo Rubalcaba Trio / Supernova
Used drive : _NEC DVD_RW ND-3540A Adapter: 0 ID: 0
Read mode : Secure
Utilize accurate stream : Yes
Defeat audio cache : Yes
Make use of C2 pointers : No
Read offset correction : 48
Overread into Lead-In and Lead-Out : No
Fill up missing offset samples with silence : Yes
Delete leading and trailing silent blocks : No
Null samples used in CRC calculations : Yes
Used interface : Native Win32 interface for Win NT & 2000
Gap handling : Appended to previous track
Used output format : User Defined Encoder
Selected bitrate : 32 kBit/s
Quality : High
Add ID3 tag : No
Command line compressor : C:\Program Files\FLAC\flac.exe
Additional command line options : -8 -V -T "ARTIST=%a" -T "TITLE=%t" -T "ALBUM=%g" -T "DATE=%y" -T "TRACKNUMBER=%n" -T "GENRE=%m" -T "COMMENT=EAC FLAC -8" %s
TOC of the extracted CD
Track | Start | Length | Start sector | End sector
---------------------------------------------------------
1 | 0:00.00 | 6:26.45 | 0 | 28994
2 | 6:26.45 | 7:12.30 | 28995 | 61424
3 | 13:39.00 | 6:02.17 | 61425 | 88591
4 | 19:41.17 | 6:43.20 | 88592 | 118836
5 | 26:24.37 | 8:30.53 | 118837 | 157139
6 | 34:55.15 | 6:11.27 | 157140 | 184991
7 | 41:06.42 | 5:43.18 | 184992 | 210734
8 | 46:49.60 | 7:05.22 | 210735 | 242631
9 | 53:55.07 | 4:44.70 | 242632 | 264001
Track 1
Filename V:\Pedro\Gonzalo Rubalcaba Trio - Supernova (1999) [FLAC]\01 - Supernova 1.wav
Pre-gap length 0:00:02.00
Peak level 100.0 %
Track quality 100.0 %
Test CRC A630A1E7
Copy CRC A630A1E7
Accurately ripped (confidence 10) [73408766]
Copy OK
Track 2
Filename V:\Pedro\Gonzalo Rubalcaba Trio - Supernova (1999) [FLAC]\02 - El Cadete Constitucional (The Constitutional Cadet).wav
Pre-gap length 0:00:01.64
Peak level 99.7 %
Track quality 100.0 %
Test CRC 2930BAEC
Copy CRC 2930BAEC
Accurately ripped (confidence 10) [218478BD]
Copy OK
Track 3
Filename V:\Pedro\Gonzalo Rubalcaba Trio - Supernova (1999) [FLAC]\03 - Alma Mia (Soul of Mine).wav
Pre-gap length 0:00:02.20
Peak level 43.0 %
Track quality 100.0 %
Test CRC 80865E00
Copy CRC 80865E00
Accurately ripped (confidence 10) [B7F734FA]
Copy OK
Track 4
Filename V:\Pedro\Gonzalo Rubalcaba Trio - Supernova (1999) [FLAC]\04 - La Voz Del Centro (The Voice In Between).wav
Peak level 97.7 %
Track quality 100.0 %
Test CRC D2D9BFD7
Copy CRC D2D9BFD7
Accurately ripped (confidence 10) [21BF4D38]
Copy OK
Track 5
Filename V:\Pedro\Gonzalo Rubalcaba Trio - Supernova (1999) [FLAC]\05 - El Manicero (The Peanut Vendor).wav
Pre-gap length 0:00:02.06
Peak level 98.8 %
Track quality 99.9 %
Test CRC 46674B9D
Copy CRC 46674B9D
Accurately ripped (confidence 10) [D4831D37]
Copy OK
Track 6
Filename V:\Pedro\Gonzalo Rubalcaba Trio - Supernova (1999) [FLAC]\06 - Supernova 2.wav
Pre-gap length 0:00:01.13
Peak level 98.8 %
Track quality 100.0 %
Test CRC AB2F2C7A
Copy CRC AB2F2C7A
Accurately ripped (confidence 10) [5E1A0BAD]
Copy OK
Track 7
Filename V:\Pedro\Gonzalo Rubalcaba Trio - Supernova (1999) [FLAC]\07 - Otra Mirada (Another View).wav
Peak level 89.9 %
Track quality 100.0 %
Test CRC BF3A715D
Copy CRC BF3A715D
Accurately ripped (confidence 10) [83FA5328]
Copy OK
Track 8
Filename V:\Pedro\Gonzalo Rubalcaba Trio - Supernova (1999) [FLAC]\08 - The Hard One (Trio Version).wav
Pre-gap length 0:00:01.33
Peak level 98.8 %
Track quality 100.0 %
Test CRC 49A30FE6
Copy CRC 49A30FE6
Accurately ripped (confidence 10) [496AB4B0]
Copy OK
Track 9
Filename V:\Pedro\Gonzalo Rubalcaba Trio - Supernova (1999) [FLAC]\09 - Oren (Pray).wav
Peak level 98.7 %
Track quality 99.9 %
Test CRC F6891FB5
Copy CRC F6891FB5
Accurately ripped (confidence 10) [0FC8BFE4]
Copy OK
All tracks accurately ripped
No errors occurred
End of status report
 
Содержание индексной карты (.CUE)
REM GENRE Jazz
REM DATE 2001
REM DISCID 820DC009
REM COMMENT "ExactAudioCopy v0.99pb4"
PERFORMER "Gonzalo Rubalcaba Trio"
TITLE "Supernova"
FILE "01 - Supernova 1.wav" WAVE
TRACK 01 AUDIO
TITLE "Supernova 1"
PERFORMER "Gonzalo Rubalcaba Trio"
INDEX 01 00:00:00
TRACK 02 AUDIO
TITLE "El Cadete Constitucional (The Constitutional Cadet)"
PERFORMER "Gonzalo Rubalcaba Trio"
INDEX 00 06:24:72
FILE "02 - El Cadete Constitucional (The Constitutional Cadet).wav" WAVE
INDEX 01 00:00:00
TRACK 03 AUDIO
TITLE "Alma Mia (Soul of Mine)"
PERFORMER "Gonzalo Rubalcaba Trio"
INDEX 00 07:10:15
FILE "03 - Alma Mia (Soul of Mine).wav" WAVE
INDEX 01 00:00:00
FILE "04 - La Voz Del Centro (The Voice In Between).wav" WAVE
TRACK 04 AUDIO
TITLE "La Voz Del Centro (The Voice In Between)"
PERFORMER "Gonzalo Rubalcaba Trio"
INDEX 01 00:00:00
TRACK 05 AUDIO
TITLE "El Manicero (The Peanut Vendor)"
PERFORMER "Gonzalo Rubalcaba Trio"
INDEX 00 06:41:15
FILE "05 - El Manicero (The Peanut Vendor).wav" WAVE
INDEX 01 00:00:00
TRACK 06 AUDIO
TITLE "Supernova 2"
PERFORMER "Gonzalo Rubalcaba Trio"
INDEX 00 08:29:43
FILE "06 - Supernova 2.wav" WAVE
INDEX 01 00:00:00
FILE "07 - Otra Mirada (Another View).wav" WAVE
TRACK 07 AUDIO
TITLE "Otra Mirada (Another View)"
PERFORMER "Gonzalo Rubalcaba Trio"
INDEX 01 00:00:00
TRACK 08 AUDIO
TITLE "The Hard One (Trio Version)"
PERFORMER "Gonzalo Rubalcaba Trio"
INDEX 00 05:41:68
FILE "08 - The Hard One (Trio Version).wav" WAVE
INDEX 01 00:00:00
FILE "09 - Oren (Pray).wav" WAVE
TRACK 09 AUDIO
TITLE "Oren (Pray)"
PERFORMER "Gonzalo Rubalcaba Trio"
INDEX 01 00:00:00
09:41
314
Нет комментариев. Ваш будет первым!