Поиск

(World Fusion, Ethnic Jazz) [CD] Tatunane, The Brazz Brothers, Hukwe Zawose - Afrobrazz - 1993, FLAC (image+.cue), lossless

(World Fusion, Ethnic Jazz) [CD] Tatunane, The Brazz Brothers, Hukwe Zawose - Afrobrazz - 1993, FLAC (image+.cue), lossless
♦ Tatunane, The Brazz Brothers, Hukwe Zawose - Afrobrazz ♦
Жанр: World Fusion, Ethnic Jazz
Носитель: CD
Год издания: 1993
Издатель (лейбл): Norsk Plateproduksjon
Номер по каталогу: IDCD 39
Аудиокодек: FLAC (*.flac)
Тип рипа: image+.cue
Битрейт аудио: lossless
Продолжительность: 01:00:45
Источник (релизер): dreadbull
Наличие сканов в содержимом раздачи: да
Треклист:
01. Utamaduni [06:43]
02. Kesaui [05:55]
03. Dogoli [07:02]
04. Dunia [06:37]
05. Shemejl [05:07]
06. Naukala [04:56]
07. Tanzania [11:12]
08. Trad. from Tanzania [07:14]
09. Luringen - snakedance [05:57]
 
Лог создания рипа
Exact Audio Copy V1.0 beta 3 from 29. August 2011
EAC extraction logfile from 10. January 2014, 18:24
Afrobrazz / The Brazz Brothers
Used drive : ASUS DRW-22B2L Adapter: 0 ID: 0
Read mode : Secure
Utilize accurate stream : Yes
Defeat audio cache : Yes
Make use of C2 pointers : No
Read offset correction : 6
Overread into Lead-In and Lead-Out : No
Fill up missing offset samples with silence : Yes
Delete leading and trailing silent blocks : No
Null samples used in CRC calculations : Yes
Used interface : Native Win32 interface for Win NT & 2000
Used output format : User Defined Encoder
Selected bitrate : 128 kBit/s
Quality : High
Add ID3 tag : Yes
Command line compressor : C:\Program Files (x86)\FLAC\flac.exe
Additional command line options : -8 -V -T "ARTIST=%artist%" -T "TITLE=%title%" -T "ALBUM=%albumtitle%" -T "DATE=%year%" -T "TRACKNUMBER=%tracknr%" -T "GENRE=%genre%" -T "PERFORMER=%albuminterpret%" -T "COMPOSER=%composer%" %haslyrics%--tag-from-file=LYRICS="%lyricsfile%"%haslyrics% -T "ALBUMARTIST=%albumartist%" -T "DISCNUMBER=%cdnumber%" -T "TOTALDISCS=%totalcds%" -T "TOTALTRACKS=%numtracks%" -T "COMMENT=%comment%" %source% -o %dest%
TOC of the extracted CD
Track | Start | Length | Start sector | End sector
---------------------------------------------------------
1 | 0:00.00 | 6:43.08 | 0 | 30232
2 | 6:43.08 | 5:55.47 | 30233 | 56904
3 | 12:38.55 | 7:02.73 | 56905 | 88627
4 | 19:41.53 | 6:37.02 | 88628 | 118404
5 | 26:18.55 | 5:07.03 | 118405 | 141432
6 | 31:25.58 | 4:56.17 | 141433 | 163649
7 | 36:22.00 | 11:12.28 | 163650 | 214077
8 | 47:34.28 | 7:14.35 | 214078 | 246662
9 | 54:48.63 | 5:57.02 | 246663 | 273439
Range status and errors
Selected range
Filename G:\Donkey Files\Tatunane, The Brazz Brothers, Hukwe Zawose - Afrobrazz (1993, Norsk) [eac-flac-scans] byDrBull\Afrobrazz.wav
Peak level 97.7 %
Extraction speed 3.3 X
Range quality 100.0 %
Test CRC 986B91BB
Copy CRC 986B91BB
Copy OK
No errors occurred
AccurateRip summary
Track 1 accurately ripped (confidence 2) [59EBB86F] (AR v2)
Track 2 accurately ripped (confidence 2) [A64E6BDE] (AR v2)
Track 3 accurately ripped (confidence 2) [F6BB98A3] (AR v2)
Track 4 accurately ripped (confidence 2) [CFD916FD] (AR v2)
Track 5 accurately ripped (confidence 2) [5D8F132B] (AR v2)
Track 6 accurately ripped (confidence 2) [1573AC02] (AR v2)
Track 7 accurately ripped (confidence 2) [D7F2017E] (AR v2)
Track 8 accurately ripped (confidence 2) [7BAF07F6] (AR v2)
Track 9 accurately ripped (confidence 2) [CD3DA354] (AR v2)
All tracks accurately ripped
End of status report
---- CUETools DB Plugin V2.1.3
[CTDB TOCID: 6TrSOjigN.DYQWpUqfPpGf_lMms-] found, Submit result: 6TrSOjigN.DYQWpUqfPpGf_lMms- has been confirmed
[78208502] (1/1) Accurately ripped
 
Содержание индексной карты (.CUE)
REM GENRE Instrumental
REM DISCID 7D0E3D09
REM COMMENT "ExactAudioCopy v1.0b3"
PERFORMER "Afrobrazz"
TITLE "The Brazz Brothers"
FILE "Afrobrazz.flac" WAVE
TRACK 01 AUDIO
TITLE "Utamaduni"
PERFORMER "Afrobrazz"
ISRC Ci]1D9339010
INDEX 01 00:00:00
TRACK 02 AUDIO
TITLE "Kesaui"
PERFORMER "Afrobrazz"
ISRC Ci]1D9339020
INDEX 01 06:43:08
TRACK 03 AUDIO
TITLE "Dogoli"
PERFORMER "Afrobrazz"
ISRC Ci]1D9339030
INDEX 01 12:38:55
TRACK 04 AUDIO
TITLE "Dunia"
PERFORMER "Afrobrazz"
ISRC Ci]1D9339040
INDEX 01 19:41:53
TRACK 05 AUDIO
TITLE "Shemejl"
PERFORMER "Afrobrazz"
ISRC Ci]1D9339050
INDEX 01 26:18:55
TRACK 06 AUDIO
TITLE "Naukala"
PERFORMER "Afrobrazz"
ISRC Ci]1D9339060
INDEX 01 31:25:58
TRACK 07 AUDIO
TITLE "Tanzania"
PERFORMER "Afrobrazz"
ISRC Ci]1D9339070
INDEX 01 36:22:00
TRACK 08 AUDIO
TITLE "Trad. from Tanzania"
PERFORMER "Afrobrazz"
ISRC Ci]1D9339080
INDEX 01 47:34:28
TRACK 09 AUDIO
TITLE "Luringen - snakedance"
PERFORMER "Afrobrazz"
ISRC Ci]1D9339090
INDEX 01 54:48:63
 
Состав
Personnel:
Tatunane (Tanzania):
Charles Semwango Mhutto - drums, percussion, vocal;
Mahdi Tumbo - electric guitar, percussion, vocal;
Abdulla Omari Dulla - percussion, vocal;
Omari Naliene - percussion, flute, mbira, vocal;
Teddy Mbarak - bass guitar, percussion, vocal;
Seif Rengwe - trumpet, flute, sax, percussion, vocal;
The Brazz Brothers (Norway):
Jarle Førde - trumpet, vocal;
Jan Magne Førde - trumpet, vocal;
Runar Tafjord - French horn, vocal;
Helge Førde - trombone, vocal;
Stein Erik Tafjord - tuba, vocal;
Egil "Bop" Johansen - drums, percussion, vocal;
Hukwe Zawose (Tanzania) - ilimba (mbira), fiddle, vocal.Rec. live at The Intl. Music Fest. in Grieghallen, Bergen (Jun 9, 1993) & at Rockfeller, Oslo (Jun 10, 1993).
14:38
347
Нет комментариев. Ваш будет первым!