Поиск

(World Fusion, Ethnic Jazz) [CD] Omar Sosa Quarteto AfroCubano &... - Ile - 2015, FLAC (tracks+.cue), lossless

Треклист:
Omar Sosa Quarteto AfroCubano &... - Ilé
Жанр: World Fusion, Ethnic Jazz
Носитель: CD
Страна-производитель диска (релиза): Austria
Год издания: 2015
Издатель (лейбл): Otá Records / Harmonia Mundi / WorldVillage
Номер по каталогу: WVF 479110
Страна исполнителя (группы): Cuba
Аудиокодек: FLAC (*.flac)
Тип рипа: tracks+.cue
Битрейт аудио: lossless
Продолжительность: 01:04:21
Источник (релизер): ruskaval
Наличие сканов в содержимом раздачи: да

Omar Sosa - grand piano, Fender Rhodes, Motif ES8, samplers, vocal
Leandro Saint-Hill - alto and soprano saxophones, flute, clarinet, vocal
Childo Tomas - electric bass, kalimba, vocal
Ernesto Simpson - drums, vocal, kalimba
with
Marvin Sewell - guitars (1, 4, 7, 8, 12)
Yosvany Terry - soprano saxophone (2, 5, 9, 11), chekere (5)
Carlos “El Vikingo” Ronda - palmas (1, 4, 8, 11, 12, 13), cajón (1, 11)
Pedro Martinez - percussion (4, 6, 7, 8, 12, 13)
José “El Salao” Martín - vocals (4, 12, 13)
Kokayi - vocals (1, 7)
Zogaros - vocals (1, 6)
Eladio “Don Pancho” Terry - chekere (2, 9)

01. A Love Lost [05:32]
02. Momento I [02:30]
03. 4U [04:00]
04. Mentiras Enemigas (Enemy Lies) [04:56]
05. Momento II [04:05]
06. D Vuelta (The Return) [03:18]
07. Old Afro A Baba [07:40]
08. Dame La Luz (Give Me Light) [05:25]
09. Momento III [03:11]
10. Sad Meeting [05:44]
11. Momento IV [03:20]
12. La Tarde [04:25]
13. Mi Conga [05:52]
14. A Love Lost Reprise (To My Late Mother) [04:17]

 
Лог создания рипа
Exact Audio Copy V1.0 beta 3 from 29. August 2011
EAC extraction logfile from 3. April 2015, 1:28
Omar Sosa-Quarteto AfroCubano / Ile
Used drive : PLEXTOR DVDR PX-891SAW Adapter: 2 ID: 1
Read mode : Secure
Utilize accurate stream : Yes
Defeat audio cache : Yes
Make use of C2 pointers : No
Read offset correction : 48
Overread into Lead-In and Lead-Out : No
Fill up missing offset samples with silence : Yes
Delete leading and trailing silent blocks : No
Null samples used in CRC calculations : Yes
Used interface : Native Win32 interface for Win NT & 2000
Gap handling : Appended to previous track
Used output format : User Defined Encoder
Selected bitrate : 128 kBit/s
Quality : High
Add ID3 tag : No
Command line compressor : C:\Program Files (x86)\Exact Audio Copy\FLAC\FLAC.EXE
Additional command line options : -8 -V -T "ARTIST=%artist%" -T "TITLE=%title%" -T "ALBUM=%albumtitle%" -T "DATE=%year%" -T "TRACKNUMBER=%tracknr%" -T "TOTALTRACKS=%numtracks%" -T "GENRE=%genre%" -T "ALBUMARTIST=%albumartist%" -T "ALBUM ARTIST=%albumartist%" -T "COMMENT=EAC Secure Mode, Test & Copy, AccurateRip, FLAC -8" %source%
TOC of the extracted CD
Track | Start | Length | Start sector | End sector
---------------------------------------------------------
1 | 0:00.00 | 5:32.35 | 0 | 24934
2 | 5:32.35 | 2:30.02 | 24935 | 36186
3 | 8:02.37 | 4:00.66 | 36187 | 54252
4 | 12:03.28 | 4:56.01 | 54253 | 76453
5 | 16:59.29 | 4:05.56 | 76454 | 94884
6 | 21:05.10 | 3:18.44 | 94885 | 109778
7 | 24:23.54 | 7:40.35 | 109779 | 144313
8 | 32:04.14 | 5:25.39 | 144314 | 168727
9 | 37:29.53 | 3:11.08 | 168728 | 183060
10 | 40:40.61 | 5:44.72 | 183061 | 208932
11 | 46:25.58 | 3:20.48 | 208933 | 223980
12 | 49:46.31 | 4:25.28 | 223981 | 243883
13 | 54:11.59 | 5:52.19 | 243884 | 270302
14 | 60:04.03 | 4:17.21 | 270303 | 289598
Track 1
Filename G:\Flac Rips\01 - A Love Lost.wav
Pre-gap length 0:00:02.00
Peak level 97.6 %
Extraction speed 5.1 X
Track quality 100.0 %
Test CRC 6780EC49
Copy CRC 6780EC49
Track not present in AccurateRip database
Copy OK
Track 2
Filename G:\Flac Rips\02 - Momento I.wav
Peak level 96.3 %
Extraction speed 3.0 X
Track quality 99.9 %
Test CRC CDF4ACE3
Copy CRC CDF4ACE3
Track not present in AccurateRip database
Copy OK
Track 3
Filename G:\Flac Rips\03 - 4U.wav
Peak level 97.6 %
Extraction speed 5.8 X
Track quality 100.0 %
Test CRC 58A1F8A2
Copy CRC 58A1F8A2
Track not present in AccurateRip database
Copy OK
Track 4
Filename G:\Flac Rips\04 - Mentiras Enemigas (Enemy Lies).wav
Peak level 97.6 %
Extraction speed 6.4 X
Track quality 100.0 %
Test CRC 9EAD1E3F
Copy CRC 9EAD1E3F
Track not present in AccurateRip database
Copy OK
Track 5
Filename G:\Flac Rips\05 - Momento II.wav
Peak level 97.6 %
Extraction speed 6.7 X
Track quality 100.0 %
Test CRC 79BD6665
Copy CRC 79BD6665
Track not present in AccurateRip database
Copy OK
Track 6
Filename G:\Flac Rips\06 - D Vuelta (The Return).wav
Peak level 97.6 %
Extraction speed 6.8 X
Track quality 100.0 %
Test CRC 16406CD7
Copy CRC 16406CD7
Track not present in AccurateRip database
Copy OK
Track 7
Filename G:\Flac Rips\07 - Old Afro A Baba.wav
Peak level 97.6 %
Extraction speed 6.3 X
Track quality 99.9 %
Test CRC F62A6C06
Copy CRC F62A6C06
Track not present in AccurateRip database
Copy OK
Track 8
Filename G:\Flac Rips\08 - Dame La Luz (Give Me Light).wav
Peak level 97.6 %
Extraction speed 8.2 X
Track quality 100.0 %
Test CRC 7C73A64C
Copy CRC 7C73A64C
Track not present in AccurateRip database
Copy OK
Track 9
Filename G:\Flac Rips\09 - Momento III.wav
Peak level 97.6 %
Extraction speed 7.9 X
Track quality 100.0 %
Test CRC 436B8D1D
Copy CRC 436B8D1D
Track not present in AccurateRip database
Copy OK
Track 10
Filename G:\Flac Rips\10 - Sad Meeting.wav
Peak level 97.6 %
Extraction speed 6.6 X
Track quality 99.9 %
Test CRC 48138EF7
Copy CRC 48138EF7
Track not present in AccurateRip database
Copy OK
Track 11
Filename G:\Flac Rips\11 - Momento IV.wav
Peak level 98.8 %
Extraction speed 8.5 X
Track quality 100.0 %
Test CRC AFFF2D1C
Copy CRC AFFF2D1C
Track not present in AccurateRip database
Copy OK
Track 12
Filename G:\Flac Rips\12 - La Tarde.wav
Peak level 97.6 %
Extraction speed 9.1 X
Track quality 100.0 %
Test CRC AA8629AD
Copy CRC AA8629AD
Track not present in AccurateRip database
Copy OK
Track 13
Filename G:\Flac Rips\13 - Mi Conga.wav
Peak level 97.6 %
Extraction speed 7.2 X
Track quality 99.9 %
Test CRC 74736E6F
Copy CRC 74736E6F
Track not present in AccurateRip database
Copy OK
Track 14
Filename G:\Flac Rips\14 - A Love Lost Reprise (To My Late Mother).wav
Peak level 94.8 %
Extraction speed 6.7 X
Track quality 99.9 %
Test CRC 521E943C
Copy CRC 521E943C
Track not present in AccurateRip database
Copy OK
None of the tracks are present in the AccurateRip database
No errors occurred
End of status report
==== Log checksum BFA25F044A05BD64B425547EC2A0EC843272A803E305A656C07DFF2C621C3FE7 ====
 
Содержание индексной карты (.CUE)
REM GENRE Latin
REM DATE 2014
REM DISCID C50F150E
REM COMMENT "ExactAudioCopy v1.0b3"
PERFORMER "Omar Sosa-Quarteto AfroCubano"
TITLE "Ile"
FILE "01 - A Love Lost.wav" WAVE
TRACK 01 AUDIO
TITLE "A Love Lost"
PERFORMER "Omar Sosa-Quarteto AfroCubano"
FLAGS DCP
INDEX 01 00:00:00
FILE "02 - Momento I.wav" WAVE
TRACK 02 AUDIO
TITLE "Momento I"
PERFORMER "Omar Sosa-Quarteto AfroCubano"
FLAGS DCP
INDEX 01 00:00:00
FILE "03 - 4U.wav" WAVE
TRACK 03 AUDIO
TITLE "4U"
PERFORMER "Omar Sosa-Quarteto AfroCubano"
FLAGS DCP
INDEX 01 00:00:00
FILE "04 - Mentiras Enemigas (Enemy Lies).wav" WAVE
TRACK 04 AUDIO
TITLE "Mentiras Enemigas (Enemy Lies)"
PERFORMER "Omar Sosa-Quarteto AfroCubano"
FLAGS DCP
INDEX 01 00:00:00
FILE "05 - Momento II.wav" WAVE
TRACK 05 AUDIO
TITLE "Momento II"
PERFORMER "Omar Sosa-Quarteto AfroCubano"
FLAGS DCP
INDEX 01 00:00:00
FILE "06 - D Vuelta (The Return).wav" WAVE
TRACK 06 AUDIO
TITLE "D Vuelta (The Return)"
PERFORMER "Omar Sosa-Quarteto AfroCubano"
FLAGS DCP
INDEX 01 00:00:00
FILE "07 - Old Afro A Baba.wav" WAVE
TRACK 07 AUDIO
TITLE "Old Afro A Baba"
PERFORMER "Omar Sosa-Quarteto AfroCubano"
FLAGS DCP
INDEX 01 00:00:00
FILE "08 - Dame La Luz (Give Me Light).wav" WAVE
TRACK 08 AUDIO
TITLE "Dame La Luz (Give Me Light)"
PERFORMER "Omar Sosa-Quarteto AfroCubano"
FLAGS DCP
INDEX 01 00:00:00
FILE "09 - Momento III.wav" WAVE
TRACK 09 AUDIO
TITLE "Momento III"
PERFORMER "Omar Sosa-Quarteto AfroCubano"
FLAGS DCP
INDEX 01 00:00:00
FILE "10 - Sad Meeting.wav" WAVE
TRACK 10 AUDIO
TITLE "Sad Meeting"
PERFORMER "Omar Sosa-Quarteto AfroCubano"
FLAGS DCP
INDEX 01 00:00:00
FILE "11 - Momento IV.wav" WAVE
TRACK 11 AUDIO
TITLE "Momento IV"
PERFORMER "Omar Sosa-Quarteto AfroCubano"
FLAGS DCP
INDEX 01 00:00:00
FILE "12 - La Tarde.wav" WAVE
TRACK 12 AUDIO
TITLE "La Tarde"
PERFORMER "Omar Sosa-Quarteto AfroCubano"
FLAGS DCP
INDEX 01 00:00:00
FILE "13 - Mi Conga.wav" WAVE
TRACK 13 AUDIO
TITLE "Mi Conga"
PERFORMER "Omar Sosa-Quarteto AfroCubano"
FLAGS DCP
INDEX 01 00:00:00
FILE "14 - A Love Lost Reprise (To My Late Mother).wav" WAVE
TRACK 14 AUDIO
TITLE "A Love Lost Reprise (To My Late Mother)"
PERFORMER "Omar Sosa-Quarteto AfroCubano"
FLAGS DCP
INDEX 01 00:00:00
18:18
542
Нет комментариев. Ваш будет первым!