Поиск

(World Fusion, Ethnic Jazz, Avant-Garde Jazz) David Murray - Fo Deuk Revue - 1997, FLAC (tracks+.cue), lossless

(World Fusion, Ethnic Jazz, Avant-Garde Jazz) David Murray - Fo Deuk Revue - 1997, FLAC (tracks+.cue), lossless
♦ David Murray - Fo Deuk Revue ♦
Жанр: World Fusion, Ethnic Jazz, Avant-Garde Jazz
Страна-производитель диска: Canada
Год издания: 1997
Издатель (лейбл): Justin Time
Номер по каталогу: JUST 94-2
Аудиокодек: FLAC (*.flac)
Тип рипа: tracks+.cue
Битрейт аудио: lossless
Продолжительность: 00:56:20
Источник (релизер): Рип с диска.
Наличие сканов в содержимом раздачи: да
Треклист:
01. Blue Muse [09:03]
02. Evidence [06:00]
03. One World Family [08:44]
04. Too Many Hungry People [05:19]
05. Chant Africain [07:04]
06. Abdoul Aziz Sy [06:30]
07. Village Urbana [07:17]
08. Thilo [06:20]
 
Лог создания рипа
Exact Audio Copy V1.0 beta 3 from 29. August 2011
EAC extraction logfile from 24. September 2013, 17:42
David Murray / Fo Deuk Revue
Used drive : Optiarc DVD RW AD-5200A Adapter: 0 ID: 0
Read mode : Secure
Utilize accurate stream : Yes
Defeat audio cache : Yes
Make use of C2 pointers : No
Read offset correction : 48
Overread into Lead-In and Lead-Out : No
Fill up missing offset samples with silence : Yes
Delete leading and trailing silent blocks : No
Null samples used in CRC calculations : Yes
Used interface : Native Win32 interface for Win NT & 2000
Gap handling : Appended to previous track
Used output format : User Defined Encoder
Selected bitrate : 128 kBit/s
Quality : High
Add ID3 tag : No
Command line compressor : C:\Program Files\Exact Audio Copy\Flac\flac.exe
Additional command line options : -V -8 -T "Genre=%genre%" -T "Artist=%artist%" -T "Title=%title%" -T "Album=%albumtitle%" -T "Date=%year%" -T "Tracknumber=%tracknr%" -T "Comment=%comment%" %source%
TOC of the extracted CD
Track | Start | Length | Start sector | End sector
---------------------------------------------------------
1 | 0:00.00 | 9:03.47 | 0 | 40771
2 | 9:03.47 | 6:00.13 | 40772 | 67784
3 | 15:03.60 | 8:44.00 | 67785 | 107084
4 | 23:47.60 | 5:19.52 | 107085 | 131061
5 | 29:07.37 | 7:04.15 | 131062 | 162876
6 | 36:11.52 | 6:30.63 | 162877 | 192189
7 | 42:42.40 | 7:17.35 | 192190 | 224999
8 | 50:00.00 | 6:20.30 | 225000 | 253529
Track 1
Filename F:\1\01. Blue Muse.wav
Pre-gap length 0:00:02.00
Peak level 100.0 %
Extraction speed 2.4 X
Track quality 99.9 %
Test CRC EBE828B1
Copy CRC EBE828B1
Accurately ripped (confidence 2) [280D814F] (AR v2)
Copy OK
Track 2
Filename F:\1\02. Evidence.wav
Pre-gap length 0:00:01.40
Peak level 100.0 %
Extraction speed 2.6 X
Track quality 99.9 %
Test CRC A7AA8862
Copy CRC A7AA8862
Accurately ripped (confidence 2) [B597D577] (AR v2)
Copy OK
Track 3
Filename F:\1\03. One World Family.wav
Pre-gap length 0:00:01.48
Peak level 100.0 %
Extraction speed 3.3 X
Track quality 100.0 %
Test CRC 5786E077
Copy CRC 5786E077
Accurately ripped (confidence 2) [72EBABF8] (AR v2)
Copy OK
Track 4
Filename F:\1\04. Too Many Hungry People.wav
Pre-gap length 0:00:00.63
Peak level 100.0 %
Extraction speed 3.1 X
Track quality 99.9 %
Test CRC 7F56DF21
Copy CRC 7F56DF21
Accurately ripped (confidence 2) [877097D4] (AR v2)
Copy OK
Track 5
Filename F:\1\05. Chant Africain.wav
Pre-gap length 0:00:02.67
Peak level 100.0 %
Extraction speed 3.6 X
Track quality 100.0 %
Test CRC 96871B62
Copy CRC 96871B62
Accurately ripped (confidence 2) [6551D5B7] (AR v2)
Copy OK
Track 6
Filename F:\1\06. Abdoul Aziz Sy.wav
Pre-gap length 0:00:02.52
Peak level 100.0 %
Extraction speed 3.7 X
Track quality 100.0 %
Test CRC 06534C47
Copy CRC 06534C47
Accurately ripped (confidence 2) [01000898] (AR v2)
Copy OK
Track 7
Filename F:\1\07. Village Urbana.wav
Pre-gap length 0:00:00.60
Peak level 100.0 %
Extraction speed 3.7 X
Track quality 100.0 %
Test CRC 25F61AB8
Copy CRC 25F61AB8
Accurately ripped (confidence 2) [AD641057] (AR v2)
Copy OK
Track 8
Filename F:\1\08. Thilo.wav
Pre-gap length 0:00:01.70
Peak level 100.0 %
Extraction speed 3.7 X
Track quality 100.0 %
Test CRC 4D02B7E6
Copy CRC 4D02B7E6
Accurately ripped (confidence 2) [85AB32AE] (AR v2)
Copy OK
All tracks accurately ripped
No errors occurred
End of status report
==== Log checksum 6C38EE1BA5C0CC6FBCA2B484CD9FF164B2DE7F7C8DD36D0EF20278FBA1E8C0A9 ====
 
Содержание индексной карты (.CUE)
REM GENRE Jazz
REM DATE 1997
REM DISCID 660D3408
REM COMMENT "ExactAudioCopy v1.0b3"
PERFORMER "David Murray"
TITLE "Fo Deuk Revue"
FILE "01. Blue Muse.wav" WAVE
TRACK 01 AUDIO
TITLE "Blue Muse"
PERFORMER "David Murray"
ISRC CAJ229712320
INDEX 01 00:00:00
TRACK 02 AUDIO
TITLE "Evidence"
PERFORMER "David Murray"
ISRC CAJ229712330
INDEX 00 09:02:07
FILE "02. Evidence.wav" WAVE
INDEX 01 00:00:00
TRACK 03 AUDIO
TITLE "One World Family"
PERFORMER "David Murray"
ISRC CAJ229712340
INDEX 00 05:58:40
FILE "03. One World Family.wav" WAVE
INDEX 01 00:00:00
TRACK 04 AUDIO
TITLE "Too Many Hungry People"
PERFORMER "David Murray"
ISRC CAJ229712350
INDEX 00 08:43:12
FILE "04. Too Many Hungry People.wav" WAVE
INDEX 01 00:00:00
TRACK 05 AUDIO
TITLE "Chant Africain"
PERFORMER "David Murray"
ISRC CAJ229712360
INDEX 00 05:16:60
FILE "05. Chant Africain.wav" WAVE
INDEX 01 00:00:00
TRACK 06 AUDIO
TITLE "Abdoul Aziz Sy"
PERFORMER "David Murray"
ISRC CAJ229712370
INDEX 00 07:01:38
FILE "06. Abdoul Aziz Sy.wav" WAVE
INDEX 01 00:00:00
TRACK 07 AUDIO
TITLE "Village Urbana"
PERFORMER "David Murray"
ISRC CAJ229712380
INDEX 00 06:30:03
FILE "07. Village Urbana.wav" WAVE
INDEX 01 00:00:00
TRACK 08 AUDIO
TITLE "Thilo"
PERFORMER "David Murray"
ISRC CAJ229712390
INDEX 00 07:15:40
FILE "08. Thilo.wav" WAVE
INDEX 01 00:00:00
 
Состав
Personnel: David Murray (bass clarinet, saxophone, tenor saxophone); Amadou Barry (vocals, rap vocals); Doudou N'Daiye Rose (vocals, sabar); Amiri Baraka, Jr., Junior Soul, Abdou Karim Mane, Jamaaladeen Tacuma (vocals); Hugh Ragin (trumpet); Craig Harris (trombone); Robert Irving III (piano); Daryl Burgee (drums).Recording information: Studio 2000, Senegal (06/03/1996-06/04/1996). Arranger: Doudou N'Daiye Rose.
13:14
284
Нет комментариев. Ваш будет первым!